<?xml version="1.0" standalone="no"?>
<!DOCTYPE svg PUBLIC "-//W3C//DTD SVG 1.1//EN" "http://www.w3.org/Graphics/SVG/1.1/DTD/svg11.dtd" >
<svg xmlns="http://www.w3.org/2000/svg">
<metadata>Generated by IcoMoon</metadata>
<defs>
<font id="wagtail" horiz-adv-x="1024">
<font-face units-per-em="1024" ascent="960" descent="-64" />
<missing-glyph horiz-adv-x="1024" />
<glyph unicode="&#x20;" horiz-adv-x="512" d="" />
<glyph unicode="&#x21;" glyph-name="uni21" d="M939.148 112.258c7.031-10.547 7.031-21.094 0-31.641-5.273-8.789-14.063-14.063-26.367-14.063 0 0-803.32 0-803.32 0-10.547 0-19.336 5.273-24.609 14.063-7.031 10.547-7.031 21.094-1.758 31.641 0 0 400.781 703.125 400.781 703.125 5.273 10.547 14.063 15.82 28.125 15.82 12.305 0 21.094-5.273 26.367-15.82 0 0 400.781-703.125 400.781-703.125zM561.219 156.203c0 0 0 89.648 0 89.648s-98.438 0-98.438 0c0 0 0-89.648 0-89.648s98.438 0 98.438 0zM561.219 312.648c0 0 0 270.703 0 270.703s-98.438 0-98.438 0c0 0 0-270.703 0-270.703s98.438 0 98.438 0z" />
<glyph unicode="&#x24;" glyph-name="form" d="M74.699 885.751v-874.192h874.192v874.192h-874.192zM342.098 149.665h-176.307v91.091h321.76v-91.091zM810.783 609.534h-644.99v136.639h643.523v-136.639zM809.313 362.704h-643.523v136.639h643.523v-136.639z" />
<glyph unicode="&#x30;" glyph-name="uni30" d="M680.75 569.875c0-3.75 0-7.5 0-11.25s-1.875-7.5-1.875-13.125c0-3.75-1.875-9.375-1.875-13.125-1.875-5.625-3.75-11.25-3.75-16.875-1.875-5.625-3.75-11.25-5.625-16.875s-3.75-11.25-5.625-18.75c-1.875-1.875-3.75-5.625-3.75-7.5-1.875-1.875-1.875-3.75-1.875-5.625-1.875-1.875-1.875-1.875-3.75-3.75-1.875-3.75-1.875-5.625-3.75-9.375s-3.75-5.625-5.625-9.375l-3.75-3.75-1.875-5.625c-1.875-1.875-3.75-5.625-7.5-7.5-3.75-5.625-7.5-13.125-13.125-16.875-5.625-5.625-11.25-11.25-16.875-16.875l-7.5-7.5c-3.75-1.875-5.625-3.75-9.375-7.5-11.25-9.375-24.375-16.875-37.5-24.375s-26.25-13.125-39.375-18.75c-13.125-5.625-26.25-11.25-39.375-15-11.25-3.75-22.5-7.5-33.75-11.25-22.5-5.625-41.25-9.375-54.375-13.125s-20.625-3.75-20.625-3.75c0 0 7.5 0 20.625 3.75 13.125 1.875 31.875 5.625 54.375 11.25 11.25 3.75 22.5 5.625 35.625 9.375s26.25 9.375 39.375 15c13.125 5.625 26.25 11.25 39.375 18.75 13.125 5.625 26.25 15 39.375 24.375 3.75 1.875 5.625 3.75 9.375 5.625l9.375 7.5c5.625 5.625 11.25 11.25 15 16.875 5.625 5.625 11.25 11.25 15 16.875 3.75 3.75 5.625 5.625 7.5 9.375l3.75 3.75c0 1.875 1.875 3.75 1.875 5.625 1.875 1.875 3.75 5.625 7.5 9.375 0 1.875 1.875 5.625 3.75 9.375 1.875 0 1.875 1.875 3.75 3.75 0 1.875 0 3.75 1.875 5.625s1.875 5.625 3.75 9.375c3.75 5.625 5.625 11.25 7.5 16.875 1.875 7.5 3.75 13.125 5.625 18.75s1.875 11.25 3.75 15c1.875 5.625 1.875 11.25 3.75 15 0 5.625 0 9.375 1.875 13.125 0 5.625 0 9.375 0 11.25 1.875 15 1.875 22.5 1.875 22.5h-11.25c0 0 0-7.5-1.875-20.625zM890.75 719.875l-63.75 61.875c-1.875 61.875-41.25 103.125-60 114.375-18.75 16.875-61.875 30-110.625 24.375-46.875-7.5-114.375-31.875-161.25-120-91.875-172.5-288.75-541.875-290.625-545.625-1.875 0-1.875-1.875 0-1.875 0-1.875 1.875-1.875 1.875-1.875l75 13.125-146.25-283.125c0-1.875 0-1.875 1.875-3.75 0 0 0 0 1.875 0 0 0 0 0 0 0l105 18.75c0 0 1.875 0 1.875 1.875l76.875 225c196.875 1.875 333.75 48.75 408.75 144.375 78.75 101.25 67.5 228.75 54.375 288.75l-9.375 58.125h112.5c0 0 1.875 0 1.875 1.875 1.875 0 0 1.875 0 3.75zM787.625 798.625c0-9.375-9.375-18.75-18.75-18.75-11.25 0-18.75 9.375-18.75 18.75 0 11.25 7.5 20.625 18.75 20.625 9.375 0 18.75-9.375 18.75-20.625zM725.75 371.125c-75-93.75-210-140.625-405-140.625-1.875 0-1.875-1.875-1.875-3.75l-78.75-225-95.625-16.875 146.25 283.125c0 1.875 0 1.875 0 3.75-1.875 0-1.875 1.875-3.75 1.875l-75-15c26.25 48.75 204.375 378.75 288.75 538.125 46.875 86.25 110.625 110.625 155.625 116.25 46.875 5.625 86.25-5.625 105-18.75v-41.25c-3.75 0-30 9.375-54.375 9.375s-52.5-9.375-69.375-28.125c-30-33.75-37.5-67.5-22.5-123.75 101.25 18.75 146.25-24.375 163.125-50.625 13.125-56.25 28.125-185.625-52.5-288.75zM780.125 719.875l43.125 56.25 56.25-56.25z" />
<glyph unicode="&#x31;" glyph-name="uni31" d="M213.721 149.721c-79.102 79.102-123.596 186.218-123.596 298.279 0 232.361 189.514 421.875 421.875 421.875l52.734-52.734-52.734-52.734c-174.683 0-316.406-141.724-316.406-316.406 0-84.045 32.959-164.795 92.286-224.122l-64.27-8.24zM512 26.125l-52.734 52.734 52.734 52.734c174.683 0 316.406 141.724 316.406 316.406 0 84.045-32.959 164.795-92.286 224.122l64.27 8.24 9.888 65.918c79.102-79.102 123.596-186.218 123.596-298.279 0-232.361-189.514-421.875-421.875-421.875z" />
<glyph unicode="&#x32;" glyph-name="uni32" d="M406.531 553.469h-316.406l245.544-179.627-88.989-294.983 252.136 176.331 276.856-176.331-113.708 294.983 271.912 179.627h-316.406l-118.653 303.223z" />
<glyph unicode="&#x33;" glyph-name="uni33" d="M654.5 766.75v-176.25h91.875v-183.75h-360v103.125l-285-191.25 285-189.375v101.25h536.25v536.25z" />
<glyph unicode="&#x34;" glyph-name="eye" d="M62 447.858q0 17.077 10.045 34.655 70.313 115.011 189.091 184.822t250.866 69.811 250.866-69.811 189.091-184.822q10.045-17.578 10.045-34.655t-10.045-34.655q-70.313-115.514-189.091-185.072t-250.866-69.56-250.866 69.811-189.091 184.822q-10.045 17.578-10.045 34.655zM126.286 447.858q66.797-102.958 167.494-163.978t218.22-61.022 218.22 61.022 167.494 163.978q-76.339 118.526-191.35 177.288 30.636-52.233 30.636-113.002 0-92.913-66.044-158.956t-158.956-66.044-158.956 66.044-66.044 158.956q0 60.771 30.636 113.002-115.011-58.761-191.35-177.288zM359.322 512.142q0-10.045 7.031-17.077t17.077-7.031 17.077 7.031 7.031 17.077q0 43.192 30.636 73.828t73.828 30.636q10.045 0 17.077 7.031t7.031 17.077-7.031 17.077-17.077 7.031q-62.78 0-107.728-44.95t-44.95-107.728z" />
<glyph unicode="&#x35;" glyph-name="uni35" d="M270 848h482v-46h-482zM810 494l-254-248v444h-90v-440l-250 244-66-64 362-362 362 362z" />
<glyph unicode="&#x36;" glyph-name="uni36" d="M272 848h482v-46h-482zM216 244l252 248v-444h90v440l252-244 64 64-362 362-362-362z" />
<glyph unicode="&#x37;" glyph-name="uni37" d="M775.672 26.125h-527.344c-87.341 0-158.203 70.862-158.203 158.203v527.344c0 69.214 44.495 126.892 105.469 148.315v-69.214c0-44.495 36.255-79.102 79.102-79.102s79.102 34.607 79.102 79.102v79.102h316.406v-79.102c0-44.495 36.255-79.102 79.102-79.102s79.102 34.607 79.102 79.102v69.214c60.974-21.424 105.469-79.102 105.469-148.315v-527.344c0-87.341-70.862-158.203-158.203-158.203zM828.406 606.203h-632.813v-421.875c0-29.663 23.071-52.734 52.734-52.734h527.344c29.663 0 52.734 23.071 52.734 52.734zM617.469 342.531h105.469v-105.469h-105.469zM617.469 500.734h105.469v-105.469h-105.469zM459.266 342.531h105.469v-105.469h-105.469zM459.266 500.734h105.469v-105.469h-105.469zM301.063 342.531h105.469v-105.469h-105.469zM301.063 500.734h105.469v-105.469h-105.469zM749.305 764.406c-14.831 0-26.367 11.536-26.367 26.367v79.102h52.734v-79.102c0-14.831-11.536-26.367-26.367-26.367zM274.695 764.406c-14.831 0-26.367 11.536-26.367 26.367v79.102h52.734v-79.102c0-14.831-11.536-26.367-26.367-26.367z" />
<glyph unicode="&#x38;" glyph-name="clock" d="M632.913 252.507l-173.647 173.649v232.782h105.469v-189.094l142.759-142.757zM512 869.875c-232.995 0-421.875-188.88-421.875-421.875s188.88-421.875 421.875-421.875 421.875 188.88 421.875 421.875-188.88 421.875-421.875 421.875zM512 131.594c-174.747 0-316.406 141.659-316.406 316.406s141.659 316.406 316.406 316.406c174.747 0 316.406-141.659 316.406-316.406s-141.659-316.406-316.406-316.406z" />
<glyph unicode="&#x39;" glyph-name="uni39" d="M512 898c-247.852 0-450-202.148-450-450s202.148-450 450-450c247.852 0 450 202.148 450 450s-202.148 450-450 450zM441.688 240.578l-205.664 207.422 79.102 79.102 126.563-128.32 270.703 270.703 79.102-79.102z" />
<glyph unicode="&#x3f;" glyph-name="uni3F" d="M506.375 890.5c121.875 0 225-41.25 313.125-125.625 86.25-84.375 131.25-187.5 135-309.375 0-121.875-41.25-226.875-127.5-313.125-84.375-88.125-187.5-133.125-309.375-136.875-121.875 0-226.875 41.25-313.125 127.5-88.125 84.375-133.125 187.5-135 309.375s39.375 226.875 125.625 313.125c86.25 88.125 189.375 133.125 311.25 135zM504.5 179.875c18.75 0 35.625 5.625 46.875 16.875 11.25 13.125 18.75 28.125 18.75 45 0 20.625-3.75 35.625-16.875 48.75-11.25 11.25-28.125 16.875-46.875 16.875 0 0-1.875 0-1.875 0-18.75 0-33.75-5.625-45-16.875-13.125-11.25-18.75-26.25-20.625-45 0-18.75 5.625-33.75 18.75-46.875 11.25-11.25 26.25-18.75 45-18.75 0 0 1.875 0 1.875 0zM663.875 494.875c16.875 20.625 24.375 45 24.375 75 0 48.75-16.875 86.25-50.625 110.625s-76.875 35.625-129.375 35.625c-41.25 0-75-7.5-99.375-24.375-45-26.25-67.5-73.125-69.375-140.625 0 0 0-3.75 0-3.75s105 0 105 0c0 0 0 3.75 0 3.75 0 16.875 5.625 33.75 15 52.5 11.25 15 28.125 22.5 52.5 22.5 26.25 0 43.125-5.625 50.625-18.75 9.375-13.125 15-26.25 15-43.125 0-11.25-5.625-24.375-15-37.5-5.625-7.5-13.125-15-20.625-18.75 0 0-5.625-3.75-5.625-3.75-3.75-3.75-7.5-7.5-15-11.25-5.625-3.75-13.125-9.375-18.75-15-7.5-3.75-13.125-9.375-20.625-15s-13.125-11.25-16.875-16.875c-7.5-13.125-13.125-37.5-16.875-75 0 0 0-7.5 0-7.5s105 0 105 0c0 0 0 3.75 0 3.75 0 7.5 0 16.875 3.75 26.25 3.75 13.125 11.25 24.375 26.25 35.625 0 0 26.25 16.875 26.25 16.875 30 22.5 46.875 37.5 54.375 48.75z" />
<glyph unicode="&#x40;" glyph-name="globe" d="M64 448q0 119.429 58.857 220.286t159.714 159.714 220.286 58.857 220.286-58.857 159.714-159.714 58.857-220.286-58.857-220.286-159.714-159.714-220.286-58.857-220.286 58.857-159.714 159.714-58.857 220.286zM193.143 641.714q4-4 6.857-4.571 2.286-0.571 2.857-5.143t1.429-6.286 6.571 1.714q5.143-4.571 1.714-10.857 0.571 0.571 25.143-15.429 10.857-9.714 12-12 1.714-6.286-5.714-10.286-0.571 1.143-5.143 5.143t-5.143 2.286q-1.714-2.857 0.286-10.571t6-7.143q-4 0-5.429-9.143t-1.429-20.286-0.571-13.429l1.143-0.571q-1.714-6.857 3.143-19.714t12.286-11.143q-7.429-1.714 11.429-24.571 3.429-4.571 4.571-5.143 1.714-1.143 6.857-4.286t8.571-5.714 5.714-6q2.286-2.857 5.714-12.857t8-13.429q-1.143-3.429 5.429-11.429t6-13.143q-0.571 0-1.429-0.571t-1.429-0.571q1.714-4 8.857-8t8.857-7.429q0.571-1.714 1.143-5.714t1.714-6.286 4.571-1.143q1.143 11.429-13.714 35.429-8.571 14.286-9.714 16.571-1.714 2.857-3.143 8.857t-2.571 8.286q1.143 0 3.429-0.857t4.857-2 4.286-2.286 1.143-1.714q-1.714-4 1.143-10t6.857-10.571 9.714-10.857 6.857-7.429q3.429-3.429 8-11.143t0-7.714q5.143 0 11.429-5.714t9.714-11.429q2.857-4.571 4.571-14.857t2.857-13.714q1.143-4 4.857-7.714t7.143-5.429l9.143-4.571t7.429-4q2.857-1.143 10.571-6t12.286-6.571q5.714-2.286 9.143-2.286t8.286 1.429 7.714 2q8.571 1.143 16.571-8.571t12-12q20.571-10.857 31.429-6.286-1.143-0.571 0.286-4.286t4.571-8.857 5.143-8.286 3.143-4.857q2.857-3.429 10.286-8.571t10.286-8.571q3.429 2.286 4 5.143-1.714-4.571 4-11.429t10.286-5.714q8 1.714 8 18.286-17.714-8.571-28 10.286 0 0.571-1.429 3.143t-2.286 4.857-1.429 4.857 0 4.286 2.857 1.714q5.143 0 5.714 2t-1.143 7.143-2.286 7.429q-0.571 4.571-6.286 11.429t-6.857 8.571q-2.857-5.143-9.143-4.571t-9.143 5.143q0-0.571-0.857-3.143t-0.857-3.714q-7.429 0-8.571 0.571 0.571 1.714 1.429 10t2 12.857q0.571 2.286 3.143 6.857t4.286 8.286 2.286 7.143-2.571 5.429-10 1.429q-10.857-0.571-14.857-11.429-0.571-1.714-1.714-6t-2.857-6.571-5.143-4q-4-1.714-13.714-1.143t-13.714 2.857q-7.429 4.571-12.857 16.571t-5.429 21.143q0 5.714 1.429 15.143t1.714 14.286-3.143 14q1.714 1.143 5.143 5.429t5.714 6q1.143 0.571 2.571 0.857t2.571 0 2.286 0.857 1.714 3.429q-0.571 0.571-2.286 1.714-1.714 1.714-2.286 1.714 4-1.714 16.286 0.857t15.714-0.857q8.571-6.286 12.571 1.143 0 0.571-1.429 5.429t-0.286 7.714q2.857-15.429 16.571-5.143 1.714-1.714 8.857-2.857t10-2.857q1.714-1.143 4-3.143t3.143-2.571 2.857 0.286 4.857 3.714q5.714-8 6.857-13.714 6.286-22.857 10.857-25.143 4-1.714 6.286-1.143t2.571 5.429 0 8-0.857 7.143l-0.571 4.571v10.286l-0.571 4.571q-8.571 1.714-10.571 6.857t0.857 10.571 8.571 10.571q0.571 0.571 4.571 2t8.857 3.714 7.143 4.571q12 10.857 8.571 20 4 0 6.286 5.143-0.571 0-2.857 1.714t-4.286 2.857-2.571 1.143q5.143 2.857 1.143 9.143 2.857 1.714 4.286 6.286t4.286 5.714q5.143-6.857 12-1.143 4 4.571 0.571 9.143 2.857 4 11.714 6t10.571 5.429q4-1.143 4.571 1.143t0.571 6.857 1.714 6.857q2.286 2.857 8.571 5.143t7.429 2.857l9.714 6.286q1.714 2.286 0 2.286 10.286-1.143 17.714 6.286 5.714 6.286-3.429 11.429 1.714 3.429-1.714 5.429t-8.571 3.143q1.714 0.571 6.571 0.286t6 0.857q8.571 5.714-4 9.143-9.714 2.857-24.571-6.857-1.143-0.571-5.429-5.429t-7.714-5.429q1.143 0 2.571 2.857t2.857 6.286 2 4q3.429 4 12.571 8.571 8 3.429 29.714 6.857 19.429 4.571 29.143-6.286-1.143 1.143 5.429 7.429t8.286 6.857q1.714 1.143 8.571 2.571t8.571 4.286l1.143 12.571q-6.857-0.571-10 4t-3.714 12q0-1.143-3.429-4.571 0 4-2.571 4.571t-6.571-0.571-5.143-0.571q-5.714 1.714-8.571 4.286t-4.571 9.429-2.286 8.571q-1.143 2.857-5.429 6t-5.429 6q-0.571 1.143-1.429 3.143t-1.714 3.714-2.286 3.143-3.143 1.429-4-2.857-4.286-5.714-2.571-2.857q-1.714 1.143-3.429 0.857t-2.571-0.571-2.571-1.714-2.857-2q-1.714-1.143-4.857-1.714t-4.857-1.143q8.571 2.857-0.571 6.286-5.714 2.286-9.143 1.714 5.143 2.286 4.286 6.857t-4.857 8h2.857q-0.571 2.286-4.857 4.857t-10 4.857-7.429 3.429q-4.571 2.857-19.429 5.429t-18.857 0.286q-2.857-3.429-2.571-6t2.286-8 2-7.143q0.571-3.429-3.143-7.429t-3.714-6.857q0-4 8-8.857t5.714-12.286q-1.714-4.571-9.143-9.143t-9.143-6.857q-2.857-4.571-0.857-10.571t6-9.429q1.143-1.143 0.857-2.286t-2-2.571-3.143-2.286-3.714-2l-1.714-1.143q-6.286-2.857-11.714 3.429t-7.714 14.857q-4 14.286-9.143 17.143-13.143 4.571-16.571-0.571-2.857 7.429-23.429 14.857-14.286 5.143-33.143 2.286 3.429 0.571 0 8.571-4 8.571-10.857 6.857 1.714 3.429 2.286 10t0.571 7.714q1.714 7.429 6.857 13.143 0.571 0.571 4 4.857t5.429 7.714 0.286 3.429q20-2.286 28.571 6.286 2.857 2.857 6.571 9.714t6 9.714q5.143 3.429 8 3.143t8.286-3.143 8.286-2.857q8-0.571 8.857 6.286t-4.286 11.429q6.857-0.571 1.714 9.714-2.857 4-4.571 5.143-6.857 2.286-15.429-2.857-4.571-2.286 1.143-4.571-0.571 0.571-5.429-6t-9.429-10-9.143 2.857q-0.571 0.571-3.143 7.714t-5.429 7.714q-4.571 0-9.143-8.571 1.714 4.571-6.286 8.571t-13.714 4.571q10.857 6.857-4.571 15.429-4 2.286-11.714 2.857t-11.143-2.286q-2.857-4-3.143-6.571t2.857-4.571 6-3.143 6.571-2.286 4.857-1.714q8-5.714 4.571-8-1.143-0.571-4.857-2t-6.571-2.571-3.429-2.286q-1.714-2.286 0-8t-1.143-8q-2.857 2.857-5.143 10t-4 9.429q4-5.143-14.286-3.429l-5.714 0.571q-2.286 0-9.143-1.143t-11.714-0.571-7.714 4.571q-2.286 4.571 0 11.429 0.571 2.286 2.286 1.143-2.286 1.714-6.286 5.429t-5.714 4.857q-26.286-8.571-53.714-23.429 3.429-0.571 6.857 0.571 2.857 1.143 7.429 3.714t5.714 3.143q19.429 8 24 4l2.857 2.857q8-9.143 11.429-14.286-4 2.286-17.143 0.571-11.429-3.429-12.571-6.857 4-6.857 2.857-10.286-2.286 1.714-6.571 5.714t-8.286 6.286-8.571 2.857q-9.143 0-12.571-0.571-83.429-45.714-134.286-126.857zM565.143 97.143q0-3.429 1.143-9.143 117.714 20.571 200.571 108-1.714 1.714-7.143 2.571t-7.143 2q-10.286 4-13.714 4.571 0.571 4-1.429 7.429t-4.571 5.143-7.143 4.571-6.286 4q-1.143 1.143-4 3.429t-4 3.143-4.286 2.571-4.857 1.143-5.714-0.571l-1.714-0.571q-1.714-0.571-3.143-1.429t-3.143-1.714-2.286-1.714 0-1.429q-12 9.714-20.571 12.571-2.857 0.571-6.286 3.143t-6 4-5.714 0.857-6.571-4q-2.857-2.857-3.429-8.571t-1.143-7.429q-4 2.857 0 10t1.143 10.571q-1.714 3.429-6 2.571t-6.857-2.571-6.571-4.857-5.143-3.714-4.857-3.143-4.857-4.286q-1.714-2.286-3.429-6.857t-2.857-6.286q-1.143 2.286-6.571 3.714t-5.429 3.143q1.143-5.714 2.286-20t2.857-21.714q4-17.714-6.857-27.429-15.429-14.286-16.571-22.857-2.286-12.571 6.857-14.857 0-4-4.571-11.714t-4-12.286z" />
<glyph unicode="&#x41;" glyph-name="uni41" d="M464 218l352 350c6 8 10 16 10 26s-4 18-10 26l-58 58c-8 8-16 12-26 12s-20-4-26-12l-268-266-120 120c-6 8-16 10-26 10s-18-2-26-10l-58-58c-6-8-10-16-10-26s4-18 10-26l206-204c6-8 14-12 24-12s20 4 26 12zM950 722v-548c0-46-16-84-48-116s-70-48-116-48h-548c-46 0-84 16-116 48s-48 70-48 116v548c0 46 16 84 48 116s70 48 116 48h548c46 0 84-16 116-48s48-70 48-116z" />
<glyph unicode="&#x42;" glyph-name="uni42" d="M768 412v72c0 10-4 20-10 26-8 8-16 12-26 12h-146v146c0 10-4 18-12 26-6 6-16 10-26 10h-72c-10 0-20-4-26-10-8-8-12-16-12-26v-146h-146c-10 0-18-4-26-12-6-6-10-16-10-26v-72c0-10 4-20 10-26 8-8 16-12 26-12h146v-146c0-10 4-18 12-26 6-6 16-10 26-10h72c10 0 20 4 26 10 8 8 12 16 12 26v146h146c10 0 18 4 26 12 6 6 10 16 10 26zM950 448c0-80-18-154-58-220-40-68-92-120-160-160-66-40-140-58-220-58s-154 18-220 58c-68 40-120 92-160 160-40 66-58 140-58 220s18 154 58 220c40 68 92 120 160 160 66 40 140 58 220 58s154-18 220-58c68-40 120-92 160-160 40-66 58-140 58-220z" />
<glyph unicode="&#x43;" glyph-name="uni43" d="M431.375 112.375c28.125-11.25 52.5-16.875 75-16.875 46.875 0 86.25 7.5 116.25 22.5s52.5 35.625 65.625 60c13.125 26.25 20.625 58.125 20.625 97.5 0 41.25-7.5 73.125-22.5 95.625-20.625 33.75-45 56.25-75 67.5-28.125 13.125-73.125 18.75-133.125 18.75-26.25 0-43.125-1.875-54.375-5.625v-170.625l1.875-144.375c0-5.625 1.875-13.125 5.625-24.375zM423.875 513.625c16.875-3.75 35.625-3.75 60-3.75 61.875 0 108.75 11.25 140.625 33.75 31.875 24.375 46.875 63.75 46.875 120 0 39.375-15 73.125-45 101.25-30 26.25-75 39.375-136.875 39.375-18.75 0-41.25-1.875-69.375-7.5 0-15 0-28.125 1.875-41.25 1.875-43.125 3.75-93.75 1.875-148.125v-52.5c0-16.875 0-30 0-41.25zM135.125 37.375v48.75c16.875 3.75 28.125 5.625 37.5 7.5 28.125 3.75 48.75 9.375 65.625 16.875 5.625 9.375 9.375 18.75 11.25 26.25 3.75 24.375 5.625 58.125 5.625 105l-1.875 266.25c-1.875 90-3.75 163.125-5.625 215.625 0 31.875-1.875 50.625-5.625 58.125 0 1.875-1.875 3.75-5.625 7.5-7.5 3.75-18.75 5.625-37.5 7.5-11.25 0-30 3.75-60 7.5l-3.75 43.125 140.625 3.75 202.5 7.5h24.375c1.875 0 3.75 0 7.5 0s5.625 0 7.5 0c0 0 3.75 0 11.25 0s15 0 22.5 0h39.375c31.875 0 65.625-3.75 103.125-15 15-3.75 31.875-11.25 50.625-20.625 20.625-9.375 39.375-22.5 54.375-39.375 16.875-16.875 28.125-35.625 35.625-56.25s11.25-43.125 11.25-65.625c0-24.375-5.625-48.75-16.875-69.375-13.125-20.625-30-39.375-52.5-56.25-9.375-5.625-35.625-20.625-78.75-41.25 61.875-13.125 110.625-39.375 142.5-76.875s48.75-80.625 48.75-127.5c0-26.25-5.625-56.25-15-86.25-7.5-22.5-20.625-43.125-37.5-61.875-24.375-26.25-48.75-45-75-58.125s-63.75-24.375-108.75-31.875c-30-5.625-65.625-7.5-106.875-5.625l-105 1.875c-30 0-84.375-1.875-159.375-5.625-13.125-1.875-61.875-3.75-146.25-5.625z" />
<glyph unicode="&#x44;" glyph-name="uni44" d="M374.935 114.42c-132.111 37.981-510.278 204.772-80.918 756.335 231.193-156.882 320.369-295.598 336.881-409.543-110.643-39.633-186.607-117.249-176.698-257.617-61.102 143.671-108.992 343.488-128.808 467.342-9.908-145.322 11.559-402.938 49.541-556.517zM521.908 79.741c-31.377 87.523-97.433 376.516 397.984 361.654 14.863-454.132-226.239-437.617-333.58-406.24 44.587 87.523 102.385 166.791 175.047 232.846-89.176-49.541-170.093-112.294-239.452-188.258z" />
<glyph unicode="&#x45;" glyph-name="uni45" d="M238.25 37.375l9.375 45c0 1.875 15 5.625 41.25 11.25 26.25 7.5 46.875 13.125 61.875 20.625 9.375 13.125 16.875 31.875 20.625 54.375l15 75 37.5 178.125c1.875 15 5.625 30 7.5 45 3.75 15 7.5 26.25 9.375 35.625s5.625 16.875 7.5 24.375c1.875 7.5 1.875 13.125 3.75 16.875s1.875 5.625 1.875 5.625l15 84.375 9.375 33.75 11.25 73.125 5.625 26.25v20.625c-15 7.5-41.25 13.125-78.75 15-9.375 0-16.875 1.875-18.75 1.875l9.375 54.375 170.625-7.5c13.125 0 26.25 0 37.5 0 24.375 0 61.875 1.875 116.25 3.75 11.25 1.875 22.5 1.875 35.625 3.75 13.125 0 18.75 0 18.75 0 0-5.625-1.875-13.125-1.875-18.75-3.75-11.25-5.625-20.625-7.5-28.125-20.625-7.5-39.375-13.125-58.125-16.875-22.5-5.625-41.25-11.25-54.375-16.875-3.75-11.25-9.375-26.25-13.125-46.875-3.75-15-5.625-30-7.5-43.125-15-71.25-26.25-125.625-35.625-165l-31.875-166.875-20.625-84.375-22.5-125.625-7.5-24.375c0-1.875 0-7.5 1.875-13.125 22.5-5.625 43.125-9.375 63.75-11.25 13.125-1.875 24.375-3.75 35.625-5.625-1.875-11.25-1.875-20.625-3.75-31.875-3.75-11.25-5.625-18.75-5.625-22.5-5.625 0-11.25 0-13.125 0-7.5 0-15 0-22.5 0-1.875 0-7.5 0-15 0-5.625 1.875-31.875 5.625-76.875 9.375l-106.875 1.875c-13.125 0-45-1.875-91.875-5.625-26.25-3.75-45-3.75-52.5-5.625z" />
<glyph unicode="&#x46;" glyph-name="uni46" d="M271.399 207.399c0-26.367-9.888-46.143-26.367-64.27-18.127-18.128-39.551-26.367-64.27-26.367s-46.143 8.24-64.27 26.367c-18.128 18.128-26.367 37.903-26.367 64.27 0 24.719 8.24 46.143 26.367 64.27 18.127 16.479 39.551 26.367 64.27 26.367s46.143-9.888 64.27-26.367c16.479-18.128 26.367-39.551 26.367-64.27zM271.399 448c0-24.719-9.888-46.143-26.367-64.27-18.127-18.128-39.551-26.367-64.27-26.367s-46.143 8.24-64.27 26.367c-18.128 18.128-26.367 39.551-26.367 64.27s8.24 46.143 26.367 64.27c18.127 18.127 39.551 26.367 64.27 26.367s46.143-8.24 64.27-26.367c16.479-18.127 26.367-39.551 26.367-64.27zM933.875 251.894v-90.637c0-3.296-1.648-6.592-4.943-9.888s-6.592-4.943-9.888-4.943h-573.487c-3.296 0-6.592 1.648-9.888 4.943s-4.943 6.592-4.943 9.888v90.638c0 4.943 1.648 8.24 4.943 11.536 3.296 1.648 6.592 3.296 9.888 3.296h573.487c3.296 0 6.592-1.648 9.888-3.296 3.296-3.296 4.943-6.592 4.943-11.536zM271.399 688.601c0-24.719-9.888-46.143-26.367-64.27-18.127-16.479-39.551-26.367-64.27-26.367s-46.143 9.888-64.27 26.367c-18.128 18.127-26.367 39.551-26.367 64.27 0 26.367 8.24 46.143 26.367 64.27s39.551 26.367 64.27 26.367c24.719 0 46.143-8.24 64.27-26.367 16.479-18.127 26.367-37.903 26.367-64.27zM933.875 492.495v-88.989c0-4.943-1.648-8.24-4.943-11.536s-6.592-4.943-9.888-4.943h-573.487c-3.296 0-6.592 1.648-9.888 4.943s-4.943 6.592-4.943 11.536v88.989c0 4.943 1.648 8.24 4.943 11.536s6.592 4.943 9.888 4.943h573.487c3.296 0 6.592-1.648 9.888-4.943s4.943-6.592 4.943-11.536zM933.875 734.743v-90.638c0-4.943-1.648-8.24-4.943-11.536-3.296-1.648-6.592-3.296-9.888-3.296h-573.487c-3.296 0-6.592 1.648-9.888 3.296-3.296 3.296-4.943 6.592-4.943 11.536v90.637c0 3.296 1.648 6.592 4.943 9.888s6.592 4.943 9.888 4.943h573.487c3.296 0 6.592-1.648 9.888-4.943s4.943-6.592 4.943-9.888z" />
<glyph unicode="&#x47;" glyph-name="uni47" d="M284.893 128.195c0-23.174-7.725-41.714-24.719-55.618-15.449-13.904-35.534-20.085-58.708-20.085-32.444 0-57.163 9.27-77.248 29.354l26.264 38.623c13.904-13.904 29.354-20.085 46.348-20.085 9.27 0 15.449 3.090 21.629 6.18 7.725 4.634 10.815 10.815 10.815 18.54 0 20.085-15.449 27.809-46.348 24.719l-12.36 24.719c3.090 3.090 7.725 9.27 13.904 20.085 7.725 9.27 13.904 16.994 20.085 23.174 4.634 6.18 10.815 12.36 15.449 16.995v1.545c-4.634 0-12.36-1.545-21.629-1.545s-16.994 0-21.629 0v-23.174h-46.348v66.433h146.77v-38.623l-41.714-50.984c15.449-3.090 27.809-10.815 35.534-21.629 9.27-10.815 13.904-23.174 13.904-38.623zM284.893 404.741v-69.523h-159.13c-1.545 10.815-3.090 18.54-3.090 23.174 0 15.449 4.634 29.354 10.815 41.714s15.449 21.629 24.719 29.354c9.27 7.725 20.085 15.449 29.354 21.629s18.54 12.36 24.719 18.54c7.725 6.18 10.815 13.904 10.815 20.085 0 7.725-3.090 13.904-6.18 16.994-4.634 4.634-10.815 6.18-18.54 6.18-12.36 0-24.719-9.27-35.534-26.264l-37.079 26.264c7.725 15.449 16.994 27.809 30.899 35.534s30.899 12.36 47.893 12.36c20.085 0 38.623-6.18 54.073-18.54 13.904-12.36 21.629-27.809 21.629-49.438 0-13.904-4.634-27.809-15.449-40.169-9.27-12.36-20.085-21.629-32.444-27.809-12.36-7.725-23.174-15.449-33.989-23.174-9.27-7.725-15.449-15.449-15.449-23.174h55.618v26.264zM907.508 264.151v-84.972c0-3.090-1.545-6.18-4.634-9.27s-6.18-4.634-9.27-4.634h-537.644c-3.090 0-6.18 1.545-9.27 4.634s-4.634 6.18-4.634 9.27v84.973c0 4.634 1.545 7.725 4.634 10.815 3.090 1.545 6.18 3.090 9.27 3.090h537.644c3.090 0 6.18-1.545 9.27-3.090 3.090-3.090 4.634-6.18 4.634-10.815zM286.437 661.203v-43.259h-148.315v43.259h47.893c0 12.36 0 29.354 0 54.073 0 23.174 0 41.714 0 52.529v6.18h-1.545c-1.545-4.634-9.27-13.904-21.629-24.719l-30.899 33.989 60.253 55.618h46.348v-177.669zM907.508 489.714v-83.427c0-4.634-1.545-7.725-4.634-10.815s-6.18-4.634-9.27-4.634h-537.644c-3.090 0-6.18 1.545-9.27 4.634s-4.634 6.18-4.634 10.815v83.427c0 4.634 1.545 7.725 4.634 10.815s6.18 4.634 9.27 4.634h537.644c3.090 0 6.18-1.545 9.27-4.634s4.634-6.18 4.634-10.815zM907.508 716.822v-84.973c0-4.634-1.545-7.725-4.634-10.815-3.090-1.545-6.18-3.090-9.27-3.090h-537.644c-3.090 0-6.18 1.545-9.27 3.090-3.090 3.090-4.634 6.18-4.634 10.815v84.972c0 3.090 1.545 6.18 4.634 9.27s6.18 4.634 9.27 4.634h537.644c3.090 0 6.18-1.545 9.27-4.634s4.634-6.18 4.634-9.27z" />
<glyph unicode="&#x48;" glyph-name="uni48" d="M922.625 448c0-56.25-9.375-108.75-31.875-159.375s-50.625-95.625-88.125-131.25c-35.625-37.5-80.625-65.625-131.25-88.125s-103.125-31.875-159.375-31.875c-61.875 0-120 11.25-174.375 37.5-56.25 26.25-103.125 63.75-142.5 110.625-1.875 3.75-3.75 7.5-3.75 11.25 0 5.625 1.875 7.5 5.625 11.25l73.125 73.125c3.75 3.75 7.5 5.625 13.125 5.625s9.375-3.75 13.125-5.625c24.375-35.625 58.125-61.875 95.625-78.75 37.5-18.75 76.875-28.125 120-28.125 37.5 0 73.125 7.5 106.875 20.625 33.75 15 61.875 33.75 86.25 60 26.25 24.375 45 52.5 60 86.25 13.125 33.75 20.625 69.375 20.625 106.875s-7.5 73.125-20.625 106.875c-15 33.75-33.75 61.875-60 86.25-24.375 26.25-52.5 45-86.25 60-33.75 13.125-69.375 20.625-106.875 20.625-35.625 0-69.375-5.625-101.25-18.75s-60-30-84.375-54.375l73.125-73.125c11.25-11.25 13.125-24.375 7.5-37.5-7.5-15-16.875-20.625-31.875-20.625h-240c-9.375 0-16.875 1.875-24.375 9.375s-9.375 15-9.375 24.375v240c0 15 5.625 24.375 20.625 31.875 13.125 5.625 26.25 3.75 37.5-7.5l69.375-69.375c37.5 35.625 82.5 63.75 131.25 84.375 48.75 18.75 99.375 28.125 151.875 28.125 56.25 0 108.75-9.375 159.375-31.875s95.625-50.625 131.25-88.125c37.5-35.625 65.625-80.625 88.125-131.25s31.875-103.125 31.875-159.375z" />
<glyph unicode="&#x49;" glyph-name="uni49" d="M922.625 791.125v-240c0-9.375-1.875-16.875-9.375-24.375s-15-9.375-24.375-9.375h-240c-15 0-24.375 5.625-31.875 20.625-5.625 13.125-3.75 26.25 7.5 37.5l75 73.125c-52.5 48.75-116.25 73.125-187.5 73.125-37.5 0-73.125-7.5-106.875-20.625-33.75-15-61.875-33.75-86.25-60-26.25-24.375-45-52.5-60-86.25-13.125-33.75-20.625-69.375-20.625-106.875s7.5-73.125 20.625-106.875c15-33.75 33.75-61.875 60-86.25 24.375-26.25 52.5-45 86.25-60 33.75-13.125 69.375-20.625 106.875-20.625 43.125 0 82.5 9.375 120 28.125 37.5 16.875 71.25 43.125 95.625 78.75 3.75 1.875 7.5 5.625 13.125 5.625s9.375-1.875 13.125-5.625l73.125-73.125c3.75-3.75 5.625-5.625 5.625-11.25 0-3.75-1.875-7.5-3.75-11.25-39.375-46.875-86.25-84.375-142.5-110.625-54.375-26.25-112.5-37.5-174.375-37.5-56.25 0-108.75 9.375-159.375 31.875s-95.625 50.625-131.25 88.125c-37.5 35.625-65.625 80.625-88.125 131.25s-31.875 103.125-31.875 159.375c0 56.25 9.375 108.75 31.875 159.375s50.625 95.625 88.125 131.25c35.625 37.5 80.625 65.625 131.25 88.125s103.125 31.875 159.375 31.875c52.5 0 103.125-9.375 151.875-28.125 48.75-20.625 93.75-48.75 131.25-84.375l69.375 69.375c11.25 11.25 22.5 13.125 37.5 7.5 15-7.5 20.625-16.875 20.625-31.875z" />
<glyph unicode="&#x4a;" glyph-name="uni4A" d="M824.891 256.039c0 12.305-3.516 24.609-14.063 33.398l-103.711 103.711c-8.789 10.547-21.094 14.063-35.156 14.063s-24.609-5.273-35.156-15.82c0 0 3.516-3.516 8.789-8.789s8.789-8.789 10.547-10.547c1.758-1.758 5.273-5.273 8.789-10.547 3.516-3.516 5.273-7.031 5.273-12.305 1.758-3.516 1.758-8.789 1.758-14.063 0-12.305-3.516-24.609-14.063-33.398-8.789-8.789-19.336-14.063-33.398-14.063-5.273 0-8.789 0-14.063 1.758-3.516 1.758-8.789 3.516-12.305 7.031-5.273 1.758-7.031 5.273-10.547 7.031-1.758 1.758-5.273 5.273-10.547 10.547s-7.031 8.789-8.789 8.789c-10.547-8.789-15.82-21.094-15.82-35.156s3.516-26.367 14.063-35.156l101.953-103.711c10.547-8.789 21.094-14.063 35.156-14.063 12.305 0 24.609 5.273 33.398 14.063l73.828 72.070c10.547 10.547 14.063 21.094 14.063 35.156zM471.57 609.359c0 14.063-3.516 24.609-14.063 33.398l-101.953 105.469c-10.547 8.789-21.094 14.063-35.156 14.063-12.305 0-24.609-5.273-33.398-14.063l-73.828-73.828c-10.547-8.789-14.063-21.094-14.063-33.398 0-14.063 3.516-24.609 14.063-33.398l103.711-105.469c8.789-8.789 21.094-14.063 35.156-14.063s24.609 5.273 35.156 15.82c0 1.758-3.516 5.273-8.789 10.547s-8.789 8.789-10.547 10.547c-1.758 1.758-5.273 5.273-8.789 8.789-3.516 5.273-5.273 8.789-5.273 12.305-1.758 5.273-1.758 8.789-1.758 14.063 0 14.063 3.516 24.609 14.063 35.156 8.789 8.789 19.336 14.063 33.398 14.063 5.273 0 8.789-1.758 14.063-1.758 3.516-1.758 8.789-3.516 12.305-7.031 5.273-3.516 7.031-5.273 10.547-7.031 1.758-1.758 5.273-5.273 10.547-10.547s7.031-8.789 8.789-10.547c10.547 10.547 15.82 22.852 15.82 36.914zM921.57 256.039c0-40.43-14.063-75.586-42.188-101.953l-73.828-73.828c-28.125-28.125-61.523-42.188-101.953-42.188s-75.586 14.063-101.953 42.188l-103.711 105.469c-28.125 26.367-42.188 61.523-42.188 101.953s14.063 75.586 43.945 103.711l-43.945 43.945c-28.125-28.125-63.281-43.945-103.711-43.945s-75.586 14.063-103.711 42.188l-103.711 105.469c-28.125 28.125-42.188 61.523-42.188 101.953s14.063 73.828 42.188 101.953l73.828 73.828c28.125 28.125 61.523 40.43 101.953 40.43s75.586-14.063 101.953-42.188l103.711-103.711c28.125-28.125 42.188-61.523 42.188-101.953s-14.063-75.586-43.945-105.469l43.945-43.945c28.125 29.883 63.281 43.945 103.711 43.945s75.586-14.063 103.711-42.188l103.711-103.711c28.125-28.125 42.188-63.281 42.188-101.953z" />
<glyph unicode="&#x4b;" glyph-name="uni4B" d="M950 448c0-80-18-154-58-220-40-68-92-120-160-160-66-40-140-58-220-58s-154 18-220 58c-68 40-120 92-160 160-40 66-58 140-58 220s18 154 58 220c40 68 92 120 160 160 66 40 140 58 220 58s154-18 220-58c68-40 120-92 160-160 40-66 58-140 58-220z" />
<glyph unicode="&#x4c;" glyph-name="uni4C" d="M512 758c-56 0-108-14-156-40-48-28-86-66-114-114-26-48-40-100-40-156s14-108 40-156c28-48 66-86 114-114 48-26 100-40 156-40s108 14 156 40c48 28 86 66 114 114 26 48 40 100 40 156s-14 108-40 156c-28 48-66 86-114 114-48 26-100 40-156 40zM950 448c0-80-18-154-58-220-40-68-92-120-160-160-66-40-140-58-220-58s-154 18-220 58c-68 40-120 92-160 160-40 66-58 140-58 220s18 154 58 220c40 68 92 120 160 160 66 40 140 58 220 58s154-18 220-58c68-40 120-92 160-160 40-66 58-140 58-220z" />
<glyph unicode="&#x4d;" glyph-name="uni4D" d="M958 266c0-22-8-38-22-52l-42-44c-16-14-32-20-52-20-22 0-38 6-52 20l-278 278-278-278c-14-14-30-20-52-20-20 0-36 6-50 20l-44 44c-14 14-22 30-22 52 0 20 8 36 22 52l372 372c14 14 32 20 52 20s38-6 52-20l372-372c14-16 22-32 22-52z" />
<glyph unicode="&#x4e;" glyph-name="uni4E" d="M958 558c0-20-8-38-22-52l-372-372c-14-14-32-22-52-22s-38 8-52 22l-372 372c-14 14-22 32-22 52s8 38 22 52l42 42c16 14 34 22 52 22 22 0 38-8 52-22l278-278 278 278c14 14 30 22 52 22 18 0 36-8 52-22l42-42c14-16 22-32 22-52z" />
<glyph unicode="&#x4f;" glyph-name="uni4F" d="M350.501 448c-47.791-1.648-85.693-19.776-117.005-56.031h-57.678c-24.719 0-44.495 4.943-60.974 18.128-16.479 11.536-24.719 28.015-24.719 51.086 0 103.821 18.127 154.907 54.382 154.907 1.648 0 8.24-1.648 19.776-8.24 9.888-6.592 24.719-13.184 42.847-19.776 16.479-4.943 34.607-8.24 51.086-8.24 19.776 0 39.551 3.296 59.326 9.888-1.648-11.536-1.648-21.424-1.648-29.663 0-39.551 11.536-77.453 34.607-112.060zM821.815 167.849c0-34.607-11.536-62.622-32.959-82.398-21.424-21.424-49.438-31.311-84.045-31.311h-385.62c-34.607 0-62.622 9.888-84.045 31.311-21.424 19.776-32.959 47.791-32.959 82.398 0 16.479 1.648 31.311 1.648 46.143 1.648 14.831 3.296 29.663 6.592 47.791 3.296 16.479 6.592 32.959 11.536 47.791s11.536 28.015 18.128 42.847c8.24 13.184 18.127 24.719 28.015 34.607s23.071 18.127 37.903 24.719c14.831 4.943 31.311 8.24 49.438 8.24 1.648 0 8.24-3.296 18.128-9.888s19.776-13.184 31.311-21.424c13.184-6.592 28.015-14.831 47.791-19.776 19.776-6.592 39.551-9.888 59.326-9.888s39.551 3.296 59.326 9.888c19.776 4.943 34.607 13.184 47.791 19.776 11.536 8.24 21.424 14.831 31.311 21.424s16.479 9.888 18.127 9.888c18.128 0 34.607-3.296 49.438-8.24 14.831-6.592 28.015-14.831 37.903-24.719s19.776-21.424 28.015-34.607c6.592-14.831 13.184-28.015 18.127-42.847s8.24-31.311 11.536-47.791c3.296-18.128 4.943-32.959 6.592-47.791 0-14.831 1.648-29.663 1.648-46.143zM371.924 729.799c0-31.311-11.536-57.678-32.959-80.75-23.071-21.424-49.438-32.959-80.75-32.959-29.663 0-57.678 11.536-79.102 32.959-21.424 23.071-32.959 49.438-32.959 80.75s11.536 57.678 32.959 79.102c21.424 21.424 49.438 32.959 79.102 32.959 31.311 0 57.678-11.536 80.75-32.959 21.424-21.424 32.959-47.791 32.959-79.102zM680.091 560.060c0-46.143-16.479-85.693-49.438-118.653s-72.51-49.438-118.653-49.438c-46.143 0-85.693 16.479-118.653 49.438s-49.438 72.51-49.438 118.653c0 47.791 16.479 87.341 49.438 120.3s72.51 49.438 118.653 49.438c46.143 0 85.693-16.479 118.653-49.438s49.438-72.51 49.438-120.3zM933.875 461.183c0-23.071-8.24-39.551-24.719-51.086-16.479-13.184-36.255-18.128-60.974-18.128h-57.678c-31.311 36.255-69.214 54.383-117.005 56.031 23.071 34.607 34.607 72.51 34.607 112.060 0 8.24 0 18.127-1.648 29.663 19.776-6.592 39.551-9.888 59.326-9.888 16.479 0 34.607 3.296 51.086 8.24 18.128 6.592 32.959 13.184 42.847 19.776 11.536 6.592 18.128 8.24 19.776 8.24 36.255 0 54.383-51.086 54.383-154.907zM877.844 729.799c0-31.311-11.536-57.678-32.959-80.75-21.424-21.424-49.438-32.959-79.102-32.959-31.311 0-57.678 11.536-80.75 32.959-21.424 23.071-32.959 49.438-32.959 80.75s11.536 57.678 32.959 79.102c23.071 21.424 49.438 32.959 80.75 32.959 29.663 0 57.678-11.536 79.102-32.959s32.959-47.791 32.959-79.102z" />
<glyph unicode="&#x50;" glyph-name="uni50" d="M750 448c0-14-6-24-18-32l-312-182c-6-4-12-6-18-6s-12 2-18 6-18 18-18 32v364c0 14 6 26 18 32 12 8 24 8 36 0l312-182c12-8 18-18 18-32zM822 448c0 56-14 108-40 156-28 48-66 86-114 114-48 26-100 40-156 40s-108-14-156-40c-48-28-86-66-114-114-26-48-40-100-40-156s14-108 40-156c28-48 66-86 114-114 48-26 100-40 156-40s108 14 156 40c48 28 86 66 114 114 26 48 40 100 40 156zM950 448c0-80-18-154-58-220-40-68-92-120-160-160-66-40-140-58-220-58s-154 18-220 58c-68 40-120 92-160 160-40 66-58 140-58 220s18 154 58 220c40 68 92 120 160 160 66 40 140 58 220 58s154-18 220-58c68-40 120-92 160-160 40-66 58-140 58-220z" />
<glyph unicode="&#x51;" glyph-name="uni51" d="M512.359 641.359c0 26.367-10.547 49.219-28.125 68.555-19.336 17.578-42.188 28.125-68.555 28.125s-49.219-10.547-68.555-28.125c-19.336-19.336-28.125-42.188-28.125-68.555 0-14.063 3.516-28.125 8.789-42.188-12.305 7.031-26.367 8.789-40.43 8.789-28.125 0-49.219-8.789-68.555-28.125-19.336-17.578-28.125-40.43-28.125-66.797 0-28.125 8.789-50.977 28.125-68.555 19.336-19.336 40.43-28.125 68.555-28.125 26.367 0 49.219 8.789 68.555 28.125 17.578 17.578 28.125 40.43 28.125 68.555 0 14.063-3.516 26.367-10.547 40.43 14.063-5.273 28.125-8.789 42.188-8.789 26.367 0 49.219 8.789 68.555 28.125 17.578 19.336 28.125 40.43 28.125 68.555zM939.508 288.039c0-7.031-8.789-17.578-24.609-33.398-15.82-17.578-28.125-24.609-33.398-24.609-3.516 0-7.031 1.758-14.063 7.031s-12.305 10.547-19.336 17.578c-5.273 5.273-10.547 12.305-19.336 19.336-7.031 8.789-10.547 12.305-12.305 14.063l-47.461-49.219 110.742-110.742c8.789-8.789 14.063-21.094 14.063-33.398 0-14.063-7.031-28.125-19.336-40.43-14.063-14.063-26.367-19.336-40.43-19.336s-26.367 3.516-35.156 14.063l-337.5 335.742c-58.008-43.945-119.531-65.039-182.813-65.039-54.492 0-98.438 17.578-133.594 50.977-33.398 35.156-50.977 79.102-50.977 133.594 0 52.734 15.82 105.469 47.461 156.445 31.641 52.734 73.828 93.164 124.805 124.805s103.711 47.461 156.445 47.461c54.492 0 100.195-15.82 133.594-50.977 35.156-33.398 52.734-79.102 52.734-133.594 0-63.281-22.852-123.047-66.797-182.813l179.297-177.539 47.461 47.461c-1.758 1.758-5.273 5.273-12.305 12.305-8.789 7.031-15.82 14.063-21.094 19.336s-10.547 12.305-15.82 17.578c-5.273 7.031-8.789 12.305-8.789 15.82 0 5.273 8.789 15.82 24.609 31.641 15.82 17.578 28.125 24.609 33.398 24.609 3.516 0 8.789-1.758 12.305-3.516 1.758-3.516 8.789-10.547 22.852-22.852 12.305-12.305 26.367-26.367 40.43-40.43s28.125-28.125 43.945-42.188c14.063-15.82 26.367-28.125 36.914-40.43 8.789-10.547 14.063-17.578 14.063-19.336z" />
<glyph unicode="&#x52;" glyph-name="uni52" d="M880 714h-376c-20 24-40 50-46 56-4 12-16 20-28 20h-150c-10 0-18-6-26-12l-50-64h-60c-32 0-56-26-56-56v-496c0-30 24-56 56-56h736c32 0 56 26 56 56v496c0 30-24 56-56 56z" />
<glyph unicode="&#x53;" glyph-name="uni53" d="M806.983 332.643v-192.81h-589.966v192.81h-112.060v-248.841c0-31.311 24.719-57.678 56.031-57.678h702.026c31.311 0 56.031 26.367 56.031 57.678v248.841zM502.112 352.419l-163.147 194.458c0 0-24.719 24.719 3.296 24.719 26.367 0 90.637 0 90.637 0s0 14.831 0 39.551c0 67.566 0 194.458 0 245.544 0 0-3.296 13.184 18.128 13.184 19.776 0 112.060 0 128.54 0 14.831 0 13.184-11.536 13.184-11.536 0-49.438 0-179.627 0-245.544 0-21.424 0-36.255 0-36.255s52.734 0 85.693 0c31.311 0 8.24-24.719 8.24-24.719s-138.428-182.922-158.203-201.050c-13.184-14.831-26.367 1.648-26.367 1.648z" />
<glyph unicode="&#x54;" glyph-name="uni54" d="M766.918 264.151c0 18.54-6.18 35.534-18.54 50.984-13.904 15.449-29.354 23.174-46.348 23.174-15.449 0-27.809-4.634-37.079-15.449-7.725-10.815-12.36-24.719-12.36-41.714s4.634-30.899 15.449-41.714c10.815-12.36 26.264-16.995 46.348-16.995 13.904 0 26.264 3.090 37.079 10.815 10.815 9.27 15.449 18.54 15.449 30.899zM498.096 208.533c0-4.634-1.545-7.725-4.634-10.815l-140.59-140.59c-3.090-3.090-6.18-4.634-10.815-4.634-3.090 0-6.18 1.545-9.27 4.634l-142.136 140.59c-4.634 4.634-4.634 9.27-3.090 15.449 3.090 6.18 7.725 9.27 13.904 9.27h84.972v607.166c0 4.634 1.545 7.725 3.090 9.27 3.090 3.090 6.18 4.634 10.815 4.634h84.973c3.090 0 7.725-1.545 9.27-4.634 3.090-1.545 4.634-4.634 4.634-9.27v-607.166h84.973c3.090 0 7.725-1.545 9.27-4.634 3.090-3.090 4.634-6.18 4.634-9.27zM828.716 237.886c0-18.54-1.545-35.534-6.18-52.529-3.090-18.54-9.27-35.534-16.994-50.984-9.27-15.449-18.54-29.354-30.899-41.714-10.815-12.36-26.264-21.629-43.259-29.354s-35.534-10.815-55.618-10.815c-18.54 0-33.989 3.090-47.893 7.725-7.725 1.545-13.904 4.634-18.54 6.18l16.995 49.438c4.634-1.545 9.27-3.090 13.904-4.634 10.815-3.090 21.629-6.18 32.444-6.18 24.719 0 44.804 9.27 60.253 26.264 13.904 16.994 24.719 38.623 29.354 64.888h-1.545c-6.18-7.725-15.449-12.36-26.264-16.995-12.36-4.634-24.719-6.18-38.623-6.18-30.899 0-55.618 10.815-75.703 30.899-20.085 21.629-29.354 46.348-29.354 77.248s10.815 57.163 30.899 78.792c21.629 20.085 47.893 30.899 80.337 30.899 37.079 0 66.433-13.904 91.152-41.714 23.174-27.809 35.534-64.888 35.534-111.237zM816.356 554.601v-49.438h-207.023v49.438h72.612v191.574c0 1.545 0 4.634 0 7.725 1.545 3.090 1.545 6.18 1.545 7.725v6.18h-1.545l-3.090-4.634c-3.090-3.090-6.18-7.725-10.815-13.904l-27.809-24.719-37.079 37.079 84.973 81.882h54.073v-288.907z" />
<glyph unicode="&#x55;" glyph-name="uni55" d="M449.378 129.946c0-57.678-47.791-103.821-105.469-103.821s-105.469 46.143-105.469 103.821c0 59.326 47.791 105.469 105.469 105.469s105.469-46.143 105.469-105.469zM449.378 448c0-57.678-47.791-105.469-105.469-105.469s-105.469 47.791-105.469 105.469c0 57.678 47.791 105.469 105.469 105.469s105.469-47.791 105.469-105.469zM449.378 766.054c0-59.326-47.791-105.469-105.469-105.469s-105.469 46.143-105.469 105.469c0 57.678 47.791 103.821 105.469 103.821s105.469-46.143 105.469-103.821zM785.56 129.946c0-57.678-47.791-103.821-105.469-103.821s-105.469 46.143-105.469 103.821c0 59.326 47.791 105.469 105.469 105.469s105.469-46.143 105.469-105.469zM785.56 448c0-57.678-47.791-105.469-105.469-105.469s-105.469 47.791-105.469 105.469c0 57.678 47.791 105.469 105.469 105.469s105.469-47.791 105.469-105.469zM785.56 766.054c0-59.326-47.791-105.469-105.469-105.469s-105.469 46.143-105.469 105.469c0 57.678 47.791 103.821 105.469 103.821s105.469-46.143 105.469-103.821z" />
<glyph unicode="&#x56;" glyph-name="uni56" d="M788.707 797.525c0-9.709-7.282-19.419-19.419-19.419-9.709 0-19.419 9.709-19.419 19.419 0 12.137 9.709 19.419 19.419 19.419 12.137 0 19.419-7.282 19.419-19.419zM795.989 613.054c0 0-26.7 121.363-186.899 89.808-14.563 55.827-12.137 97.090 21.845 133.499 48.545 50.973 126.218 24.272 126.218 24.272v41.264c-26.7 12.137-53.399 14.563-80.099 14.563-104.372 0-162.626-77.673-186.899-131.072l-288.844-531.57 82.527 14.563-150.491-288.844 104.372 19.419 80.099 225.735c225.735 0 517.006 82.527 478.171 388.362zM893.079 714.998l-63.109 63.109-50.973-63.109zM354.228 290.228c0 0 9.709 2.427 21.845 4.854 12.137 4.854 31.554 7.282 53.399 14.563 12.137 2.427 24.272 7.282 36.409 9.709 12.137 4.854 26.7 9.709 38.836 14.563 14.563 7.282 26.7 12.137 38.836 19.419 14.563 7.282 26.7 16.991 38.836 24.272 2.427 2.427 7.282 4.854 9.709 7.282l7.282 7.282c7.282 7.282 12.137 12.137 16.991 16.991s9.709 12.137 14.563 16.991c2.427 2.427 4.854 4.854 7.282 9.709l2.427 4.854 2.427 2.427c2.427 4.854 4.854 7.282 4.854 9.709 2.427 2.427 4.854 7.282 4.854 9.709 2.427 2.427 2.427 2.427 2.427 4.854 2.427 0 2.427 2.427 2.427 4.854 2.427 2.427 2.427 4.854 4.854 7.282 2.427 7.282 4.854 12.137 7.282 19.419 0 4.854 2.427 9.709 4.854 16.991 0 4.854 2.427 9.709 2.427 14.563s2.427 9.709 2.427 14.563c0 4.854 2.427 9.709 2.427 14.563 0 2.427 0 7.282 0 9.709 0 12.137 2.427 21.845 2.427 21.845l12.137-2.427c0 0-2.427-7.282-2.427-19.419 0-4.854-2.427-7.282-2.427-12.137s0-9.709-2.427-12.137c0-4.854 0-9.709-2.427-16.991 0-4.854-2.427-9.709-2.427-14.563-2.427-7.282-4.854-12.137-7.282-19.419-2.427-4.854-4.854-12.137-7.282-16.991 0-2.427-2.427-7.282-4.854-9.709 0-2.427 0-2.427-2.427-4.854 0-2.427 0-2.427-2.427-4.854 0-2.427-2.427-4.854-4.854-9.709-2.427-2.427-2.427-4.854-4.854-7.282s-2.427-4.854-2.427-4.854l-4.854-4.854c-2.427-2.427-4.854-7.282-7.282-9.709-4.854-4.854-9.709-12.137-14.563-16.991s-9.709-9.709-16.991-16.991l-7.282-7.282c-4.854-2.427-7.282-2.427-9.709-4.854-14.563-9.709-26.7-19.419-41.264-26.7-12.137-4.854-26.7-12.137-38.836-16.991-14.563-4.854-26.7-9.709-41.264-14.563-12.137-2.427-24.272-7.282-36.409-9.709-21.845-4.854-41.264-9.709-53.399-12.137s-21.845-4.854-21.845-4.854z" />
<glyph unicode="&#x57;" glyph-name="uni57" d="M821.375 397.375v-258.75c0-9.375-3.75-16.875-11.25-22.5-5.625-7.5-15-11.25-24.375-11.25h-204.375v206.25h-138.75v-206.25h-204.375c-9.375 0-18.75 3.75-24.375 11.25-7.5 5.625-11.25 13.125-11.25 22.5v258.75c0 0 0 0 1.875 0 0 1.875 0 1.875 0 1.875l307.5 255 307.5-255c0 0 1.875-1.875 1.875-1.875zM939.5 433l-31.875-39.375c-3.75-3.75-7.5-5.625-11.25-5.625h-1.875c-5.625 0-9.375 1.875-11.25 3.75l-371.25 309.375-371.25-309.375c-3.75-3.75-7.5-3.75-13.125-3.75-3.75 0-7.5 1.875-11.25 5.625l-31.875 39.375c-3.75 3.75-3.75 7.5-3.75 13.125s1.875 9.375 5.625 11.25l384.375 320.625c11.25 9.375 26.25 15 41.25 15s30-5.625 41.25-15l129.375-108.75v105c0 3.75 1.875 9.375 5.625 11.25 3.75 3.75 7.5 5.625 13.125 5.625h101.25c5.625 0 9.375-1.875 13.125-5.625 3.75-1.875 5.625-7.5 5.625-11.25v-219.375l116.25-97.5c3.75-1.875 5.625-5.625 5.625-11.25s0-9.375-3.75-13.125z" />
<glyph unicode="&#x58;" glyph-name="uni58" d="M703.602 245.852c1.758-7.031 1.758-12.305-3.516-17.578l-175.781-193.359c-1.758-3.516-7.031-5.273-10.547-5.273-5.273 0-8.789 1.758-12.305 5.273l-177.539 193.359c-5.273 5.273-5.273 10.547-3.516 17.578 3.516 5.273 8.789 8.789 14.063 8.789h112.5v627.539c0 5.273 1.758 8.789 5.273 10.547 3.516 3.516 7.031 5.273 12.305 5.273h94.922c5.273 0 8.789-1.758 12.305-5.273 3.516-1.758 5.273-5.273 5.273-10.547v-627.539h112.5c7.031 0 10.547-3.516 14.063-8.789z" />
<glyph unicode="&#x59;" glyph-name="uni59" d="M703.602 650.148c-3.516-5.273-8.789-8.789-14.063-8.789h-112.5v-627.539c0-5.273-1.758-8.789-5.273-10.547-3.516-3.516-7.031-5.273-12.305-5.273h-94.922c-5.273 0-8.789 1.758-12.305 5.273-3.516 1.758-5.273 5.273-5.273 10.547v627.539h-112.5c-7.031 0-10.547 3.516-14.063 8.789-1.758 7.031-1.758 12.305 3.516 17.578l175.781 193.359c1.758 3.516 7.031 5.273 10.547 5.273 5.273 0 8.789-1.758 12.305-5.273l177.539-193.359c5.273-5.273 5.273-10.547 3.516-17.578z" />
<glyph unicode="&#x5a;" glyph-name="uni5A" d="M402 540v-330c0-6-2-10-4-12-4-4-8-6-14-6h-36c-6 0-10 2-14 6-4 2-4 6-4 12v330c0 4 0 10 4 12 4 4 8 6 14 6h36c6 0 10-2 14-6 2-2 4-8 4-12zM548 540v-330c0-6-2-10-4-12-4-4-8-6-14-6h-36c-6 0-10 2-14 6-2 2-4 6-4 12v330c0 4 2 10 4 12 4 4 8 6 14 6h36c6 0 10-2 14-6 2-2 4-8 4-12zM694 540v-330c0-6 0-10-4-12-4-4-8-6-14-6h-36c-6 0-10 2-14 6-2 2-4 6-4 12v330c0 4 2 10 4 12 4 4 8 6 14 6h36c6 0 10-2 14-6 4-2 4-8 4-12zM768 126v542h-512v-542c0-8 2-16 4-24 2-6 6-12 8-14 4-4 6-6 6-6h476c0 0 2 2 6 6 2 2 6 8 8 14 2 8 4 16 4 24zM384 740h256l-28 68c-2 2-6 4-10 6h-180c-4-2-8-4-10-6zM914 722v-36c0-6-2-10-4-14-4-2-8-4-14-4h-54v-542c0-32-10-60-28-82-18-24-40-34-64-34h-476c-24 0-46 10-64 32s-28 50-28 82v544h-54c-6 0-10 2-14 4-2 4-4 8-4 14v36c0 6 2 10 4 14 4 2 8 4 14 4h176l40 96c6 14 16 26 32 36 14 10 30 14 44 14h184c14 0 30-4 44-14 16-10 26-22 32-36l40-96h176c6 0 10-2 14-4 2-4 4-8 4-14z" />
<glyph unicode="&#x5e;" glyph-name="eye-slash" d="M62 447.858q0 19.085 10.045 34.655 76.842 118.025 190.849 186.328t249.108 68.303q44.698 0 90.401-8.538l27.12 48.717q5.022 8.036 14.063 8.036 2.511 0 9.040-3.014t15.569-7.784 16.573-9.291 15.82-9.291 9.794-5.775q8.036-5.022 8.036-13.561 0-3.516-0.502-4.521-52.734-94.42-158.203-284.264t-158.705-284.766l-24.609-44.698q-5.022-8.036-14.063-8.036-6.026 0-67.298 35.156-8.036 5.022-8.036 14.063 0 6.026 22.099 43.694-71.819 32.646-132.337 86.886t-104.716 123.047q-10.045 15.569-10.045 34.655zM126.286 447.858q83.873-129.577 214.453-188.337l39.173 70.814q-43.694 31.641-68.303 79.854t-24.609 101.953q0 60.771 30.636 113.002-115.011-58.761-191.35-177.288zM359.322 512.142q0-10.045 7.031-17.077t17.077-7.031 17.077 7.031 7.031 17.077q0 43.192 30.636 73.828t73.828 30.636q10.045 0 17.077 7.031t7.031 17.077-7.031 17.077-17.077 7.031q-62.78 0-107.728-44.95t-44.95-107.728zM512 158.572l37.165 66.295q106.474 9.040 197.126 68.806t151.423 154.186q-57.757 89.9-141.63 147.656l31.641 56.25q47.712-32.142 91.658-76.842t72.572-92.411q10.045-17.077 10.045-34.655t-10.045-34.655q-19.587-32.142-54.743-72.823-75.335-86.384-174.525-134.095t-210.686-47.712zM592.358 302.21l140.625 252.12q4.017-22.6 4.017-42.188 0-69.811-39.677-127.315t-104.967-82.617z" />
<glyph unicode="&#x61;" glyph-name="uni61" d="M478 448c0 38-14 70-40 96-26 28-58 40-96 40s-70-12-98-40c-26-26-40-58-40-96s14-70 40-96c28-28 60-40 98-40s70 12 96 40c26 26 40 58 40 96zM888 174c0 20-8 36-20 48-14 14-30 22-48 22-20 0-36-8-48-22-14-12-22-28-22-48 0-18 8-34 20-48 14-12 30-20 50-20 18 0 34 8 48 20 12 14 20 30 20 48zM888 722c0 18-8 34-20 48-14 12-30 20-48 20-20 0-36-8-48-20-14-14-22-30-22-48 0-20 8-36 20-50 14-12 30-20 50-20 18 0 34 8 48 20 12 14 20 30 20 50zM682 496v-98c0-4 0-8-4-10-2-4-4-6-8-6l-82-12c-4-14-10-26-18-42 12-16 28-36 48-60 4-4 4-8 4-12s0-8-4-10c-8-10-22-26-44-48-20-20-34-32-42-32-4 0-6 2-10 4l-62 48c-12-6-26-12-40-16-4-38-8-66-14-82-2-10-6-14-16-14h-98c-4 0-8 2-10 4-4 4-6 6-6 10l-12 82c-12 4-26 8-40 16l-64-48c-2-2-6-4-10-4s-8 2-12 6c-50 46-76 74-76 84 0 4 2 8 4 10 4 6 10 16 22 28 10 14 18 26 24 34-8 16-14 30-18 44l-82 12c-2 0-6 2-8 6-2 2-4 6-4 10v98c0 4 2 8 4 10 2 4 6 6 8 6l82 12c4 14 10 26 18 42-12 16-28 36-48 60-2 4-4 8-4 12s2 8 4 10c8 10 22 26 44 48 22 20 36 32 42 32 4 0 8-2 12-4l60-48c12 6 26 12 42 16 4 38 8 66 12 82 2 10 8 14 16 14h98c4 0 8-2 12-4 2-4 4-6 4-10l14-82c12-4 24-8 40-16l62 48c2 2 6 4 10 4s8-2 12-6c52-46 76-74 76-84 0-4 0-8-2-10-6-6-12-16-24-30-10-12-18-24-24-32 8-16 14-32 18-44l82-12c4 0 6-2 8-6 4-2 4-6 4-10zM1024 212v-74c0-6-26-12-80-16-4-10-10-20-16-28 18-40 28-66 28-74 0-2 0-2-2-4-44-26-66-38-66-38-4 0-12 8-26 26-12 16-22 28-26 36-8-2-14-2-16-2-4 0-10 0-16 2-6-8-16-20-28-36-14-18-22-26-26-26 0 0-22 12-66 38 0 2-2 2-2 4 0 8 10 34 28 74-6 8-12 18-16 28-54 4-80 10-80 16v74c0 6 26 12 80 16 4 12 10 20 16 28-18 40-28 66-28 74 0 2 2 2 2 4 2 0 8 4 20 10 10 6 20 12 30 18s16 10 16 10c4 0 12-10 26-26 12-16 22-28 28-36 6 2 12 2 16 2 2 0 8 0 16-2 18 26 34 46 48 60l4 2c0 0 22-14 66-38 2-2 2-2 2-4 0-8-10-34-28-74 6-8 12-16 16-28 54-4 80-10 80-16zM1024 758v-74c0-6-26-12-80-16-4-10-10-20-16-28 18-40 28-66 28-74 0-2 0-2-2-4-44-26-66-38-66-38-4 0-12 8-26 26-12 16-22 28-26 36-8-2-14-2-16-2-4 0-10 0-16 2-6-8-16-20-28-36-14-18-22-26-26-26 0 0-22 12-66 38 0 2-2 2-2 4 0 8 10 34 28 74-6 8-12 18-16 28-54 4-80 10-80 16v74c0 6 26 12 80 16 4 12 10 20 16 28-18 40-28 66-28 74 0 2 2 2 2 4 2 0 8 4 20 10 10 8 20 14 30 18 10 6 16 10 16 10 4 0 12-8 26-26 12-16 22-28 28-36 6 2 12 2 16 2 2 0 8 0 16-2 18 26 34 46 48 60l4 2c0 0 22-14 66-38 2-2 2-2 2-4 0-8-10-34-28-74 6-8 12-16 16-28 54-4 80-10 80-16z" />
<glyph unicode="&#x62;" glyph-name="uni62" d="M902.4 526.933v-488.533c0-17.067-6.4-29.867-17.067-40.533-10.667-12.8-25.6-17.067-42.667-17.067h-661.333c-17.067 0-32 4.267-42.667 17.067-10.667 10.667-17.067 23.467-17.067 40.533v819.2c0 17.067 6.4 29.867 17.067 40.533 10.667 12.8 25.6 17.067 42.667 17.067h330.667v-330.667c0-17.067 6.4-29.867 17.067-40.533 10.667-12.8 25.6-17.067 40.533-17.067zM900.267 603.733h-309.333v311.467c32-6.4 59.733-19.2 78.933-40.533l189.867-189.867c21.333-21.333 34.133-46.933 40.533-81.067z" />
<glyph unicode="&#x63;" glyph-name="uni63" d="M200.533 57.6h622.933v469.333h-253.867c-14.933 0-29.867 4.267-40.533 17.067-10.667 10.667-17.067 23.467-17.067 40.533v253.867h-311.467zM590.933 603.733h228.267c-4.267 12.8-8.533 21.333-12.8 25.6l-192 189.867c-4.267 6.4-12.8 10.667-23.467 14.933zM902.4 584.533v-546.133c0-17.067-6.4-29.867-17.067-40.533-10.667-12.8-25.6-17.067-42.667-17.067h-661.333c-17.067 0-32 4.267-42.667 17.067-10.667 10.667-17.067 23.467-17.067 40.533v819.2c0 17.067 6.4 29.867 17.067 40.533 10.667 12.8 25.6 17.067 42.667 17.067h388.267c17.067 0 34.133-2.133 55.467-10.667 19.2-8.533 34.133-19.2 44.8-29.867l189.867-189.867c12.8-10.667 21.333-27.733 29.867-46.933s12.8-36.267 12.8-53.333z" />
<glyph unicode="&#x64;" glyph-name="uni64" d="M775.702 895.48l-56.086-60.19 160.049-149.106 56.086 60.19-160.049 149.106zM682.683 795.621l-549.912-590.949 160.049-149.106 549.912 590.949-160.049 149.106zM104.045 156.793l-12.312-157.312 155.945 23.255-143.633 134.057z" />
<glyph unicode="&#x65;" glyph-name="uni65" d="M798 316c0-6-2-10-6-14l-30-28c-2-4-8-6-12-6-6 0-10 2-14 6l-224 224-224-224c-4-4-8-6-14-6-4 0-10 2-12 6l-30 28c-4 4-6 8-6 14 0 4 2 8 6 12l266 266c4 4 10 6 14 6s10-2 14-6l266-266c4-4 6-8 6-12z" />
<glyph unicode="&#x66;" glyph-name="uni66" d="M682.625 513.75c0 67.5-22.5 123.75-69.375 170.625s-103.125 69.375-170.625 69.375c-65.625 0-121.875-22.5-168.75-69.375s-71.25-103.125-71.25-170.625c0-65.625 24.375-121.875 71.25-168.75s103.125-71.25 168.75-71.25c67.5 0 123.75 24.375 170.625 71.25s69.375 103.125 69.375 168.75zM958.25 69.375c0-18.75-7.5-35.625-20.625-48.75s-30-20.625-48.75-20.625c-18.75 0-35.625 7.5-48.75 20.625l-183.75 183.75c-63.75-45-135-67.5-213.75-67.5-50.625 0-99.375 9.375-146.25 30s-86.25 46.875-120 80.625c-33.75 33.75-60 73.125-80.625 120-18.75 46.875-30 95.625-30 146.25 0 52.5 11.25 101.25 30 146.25 20.625 46.875 46.875 88.125 80.625 121.875s73.125 60 120 80.625c46.875 18.75 95.625 28.125 146.25 28.125 52.5 0 101.25-9.375 148.125-28.125 45-20.625 86.25-46.875 120-80.625s60-75 80.625-121.875c18.75-45 30-93.75 30-146.25 0-78.75-22.5-150-67.5-213.75l183.75-183.75c13.125-13.125 20.625-28.125 20.625-46.875z" />
<glyph unicode="&#x67;" glyph-name="uni67" d="M852 236c0-14-6-28-16-38l-78-78c-10-10-24-16-40-16-14 0-28 6-38 16l-168 168-168-168c-10-10-24-16-38-16-16 0-30 6-40 16l-78 78c-10 10-16 24-16 38 0 16 6 28 16 40l168 168-168 168c-10 10-16 24-16 38 0 16 6 28 16 40l78 76c10 12 24 16 40 16 14 0 28-4 38-16l168-168 168 168c10 12 24 16 38 16 16 0 30-4 40-16l78-76c10-12 16-24 16-40 0-14-6-28-16-38l-168-168 168-168c10-12 16-24 16-40z" />
<glyph unicode="&#x68;" glyph-name="uni68" d="M732 284v-38c0-4-2-8-6-12s-8-6-12-6h-404c-4 0-8 2-12 6s-6 8-6 12v38c0 4 2 10 6 12 4 4 8 6 12 6h404c4 0 8-2 12-6 4-2 6-8 6-12zM732 430v-36c0-6-2-10-6-14s-8-6-12-6h-404c-4 0-8 2-12 6s-6 8-6 14v36c0 6 2 10 6 12 4 4 8 6 12 6h404c4 0 8-2 12-6 4-2 6-6 6-12zM220 82h584v440h-238c-14 0-28 4-38 16-10 10-16 22-16 38v238h-292zM586 594h214c-4 12-8 20-12 24l-180 178c-4 6-12 10-22 14zM878 576v-512c0-16-6-28-16-38-10-12-24-16-40-16h-620c-16 0-30 4-40 16-10 10-16 22-16 38v768c0 16 6 28 16 38 10 12 24 16 40 16h364c16 0 32-2 52-10 18-8 32-18 42-28l178-178c12-10 20-26 28-44s12-34 12-50z" />
<glyph unicode="&#x69;" glyph-name="uni69" d="M896.961 400.18c0 10.547-8.789 15.82-24.609 15.82h-509.766c-12.305 0-26.367-3.516-40.43-10.547s-26.367-14.063-33.398-24.609l-138.867-170.508c-5.273-7.031-7.031-12.305-7.031-17.578 0-10.547 7.031-17.578 24.609-17.578h509.766c12.305 0 26.367 3.516 40.43 10.547s24.609 15.82 33.398 24.609l137.109 170.508c5.273 7.031 8.789 14.063 8.789 19.336zM362.586 475.766h358.594v75.586c0 12.305-3.516 22.852-12.305 31.641s-19.336 12.305-31.641 12.305h-270.703c-12.305 0-22.852 5.273-31.641 14.063s-12.305 19.336-12.305 31.641v29.883c0 12.305-5.273 22.852-14.063 31.641s-19.336 14.063-31.641 14.063h-149.414c-12.305 0-22.852-5.273-31.641-14.063s-14.063-19.336-14.063-31.641v-399.023l119.531 147.656c14.063 15.82 33.398 29.883 54.492 40.43 22.852 10.547 45.703 15.82 66.797 15.82zM956.727 400.18c0-19.336-7.031-38.672-21.094-56.25l-138.867-170.508c-14.063-17.578-31.641-29.883-54.492-40.43-22.852-12.305-43.945-17.578-65.039-17.578h-509.766c-29.883 0-54.492 10.547-73.828 31.641-21.094 21.094-31.641 45.703-31.641 73.828v450c0 28.125 10.547 52.734 31.641 73.828 19.336 21.094 43.945 31.641 73.828 31.641h149.414c28.125 0 52.734-10.547 73.828-31.641s31.641-45.703 31.641-73.828v-14.063h254.883c28.125 0 52.734-10.547 73.828-31.641s31.641-45.703 31.641-73.828v-75.586h89.648c15.82 0 31.641-3.516 45.703-10.547 14.063-8.789 24.609-19.336 31.641-33.398 5.273-10.547 7.031-21.094 7.031-31.641z" />
<glyph unicode="&#x6a;" glyph-name="uni6A" d="M958.25 569.75v-376.875c0-31.875-13.125-60-35.625-84.375-24.375-24.375-52.5-35.625-84.375-35.625h-652.5c-31.875 0-60 11.25-84.375 35.625-22.5 24.375-35.625 52.5-35.625 84.375v513.75c0 33.75 13.125 61.875 35.625 86.25 24.375 22.5 52.5 33.75 84.375 33.75h172.5c31.875 0 60-11.25 84.375-33.75 22.5-24.375 35.625-52.5 35.625-86.25v-16.875h360c31.875 0 60-11.25 84.375-35.625 22.5-22.5 35.625-50.625 35.625-84.375z" />
<glyph unicode="&#x6b;" glyph-name="uni6B" d="M962 573.164v-399.023c0-21.094-7.031-40.43-22.852-56.25s-35.156-22.852-58.008-22.852h-738.281c-22.852 0-42.188 7.031-58.008 22.852s-22.852 35.156-22.852 56.25v399.023c14.063-15.82 31.641-29.883 50.977-43.945 121.289-82.617 203.906-138.867 249.609-172.266 19.336-14.063 35.156-26.367 45.703-33.398 12.305-7.031 28.125-15.82 47.461-24.609 21.094-7.031 38.672-12.305 56.25-12.305v0c17.578 0 35.156 5.273 56.25 12.305 19.336 8.789 35.156 17.578 47.461 24.609 10.547 7.031 26.367 19.336 45.703 33.398 58.008 40.43 140.625 98.438 249.609 172.266 19.336 14.063 36.914 28.125 50.977 43.945zM962 720.82c0-26.367-8.789-50.977-24.609-75.586s-36.914-43.945-61.523-61.523c-124.805-87.891-203.906-142.383-235.547-163.477-1.758-1.758-10.547-7.031-21.094-15.82-10.547-7.031-19.336-14.063-26.367-19.336-7.031-3.516-15.82-8.789-26.367-15.82-10.547-5.273-19.336-10.547-28.125-14.063-10.547-1.758-17.578-3.516-26.367-3.516v0c-8.789 0-15.82 1.758-26.367 3.516-8.789 3.516-17.578 8.789-28.125 14.063-10.547 7.031-19.336 12.305-26.367 15.82-7.031 5.273-15.82 12.305-26.367 19.336-10.547 8.789-19.336 14.063-21.094 15.82-31.641 21.094-75.586 52.734-131.836 91.406-58.008 40.43-91.406 63.281-103.711 72.070-21.094 14.063-40.43 33.398-58.008 58.008-19.336 24.609-28.125 47.461-28.125 68.555 0 26.367 7.031 47.461 21.094 65.039s33.398 26.367 59.766 26.367h738.281c22.852 0 40.43-8.789 56.25-24.609s24.609-33.398 24.609-56.25z" />
<glyph unicode="&#x6c;" glyph-name="uni6C" d="M671.961 738.039c0-8.789-1.758-17.578-8.789-22.852-7.031-7.031-14.063-10.547-22.852-10.547h-63.281v-513.281h63.281c8.789 0 15.82-3.516 22.852-10.547 7.031-5.273 8.789-14.063 8.789-22.852s-1.758-15.82-8.789-21.094l-128.32-130.078c-7.031-5.273-14.063-8.789-22.852-8.789s-15.82 3.516-22.852 8.789l-128.32 130.078c-7.031 5.273-8.789 12.305-8.789 21.094s1.758 17.578 8.789 22.852c7.031 7.031 14.063 10.547 22.852 10.547h63.281v513.281h-63.281c-8.789 0-15.82 3.516-22.852 10.547-7.031 5.273-8.789 14.063-8.789 22.852s1.758 15.82 8.789 21.094l128.32 130.078c7.031 5.273 14.063 8.789 22.852 8.789s15.82-3.516 22.852-8.789l128.32-130.078c7.031-5.273 8.789-12.305 8.789-21.094z" />
<glyph unicode="&#x6d;" glyph-name="lock" horiz-adv-x="1044" d="M515.010 911.24c-152.629 0-276.799-124.169-276.799-276.8v-158.089c0-1.794-2.218-4.822-3.961-5.403-14.966-4.995-27.124-9.317-38.252-13.61-13.268-5.117-23.279-19.822-23.279-34.207v-363.246c0-14.289 9.946-29.011 23.133-34.234 102.029-40.432 209.41-60.925 319.162-60.925s217.133 20.498 319.164 60.928c13.181 5.225 23.122 19.942 23.122 34.231v363.246c0 14.392-10.010 29.092-23.284 34.214-11.133 4.292-23.292 8.616-38.246 13.61-1.736 0.579-3.952 3.608-3.952 5.403v158.089c-0.001 152.629-124.17 276.796-276.798 276.796zM439.618 312.492c0 41.667 33.757 75.388 75.388 75.388s75.388-33.715 75.388-75.388c0-27.609-15.572-50.727-37.691-63.83v-124.642c0-20.833-16.86-37.691-37.696-37.691-20.834 0-37.691 16.86-37.691 37.691v124.642c-22.122 13.104-37.691 36.218-37.691 63.83zM696.635 634.445v-136.403c-59.559 12.813-120.663 19.305-181.595 19.313-60.902 0-122-6.493-181.65-19.297v136.386c0 100.146 81.472 181.62 181.62 181.62s181.627-81.473 181.627-181.622z" />
<glyph unicode="&#x6e;" glyph-name="uni6E" d="M670 444c0-6-2-10-6-14l-266-266c-4-4-10-6-14-6s-10 2-14 6l-28 28c-4 4-6 8-6 14 0 4 2 10 6 12l224 226-224 224c-4 4-6 8-6 14 0 4 2 8 6 12l28 28c4 4 10 6 14 6s10-2 14-6l266-266c4-4 6-8 6-12z" />
<glyph unicode="&#x6f;" glyph-name="uni6F" d="M362.586 597.414c0-24.609-8.789-45.703-26.367-63.281s-38.672-26.367-65.039-26.367c-24.609 0-45.703 8.789-63.281 26.367s-26.367 38.672-26.367 63.281c0 26.367 8.789 47.461 26.367 65.039s38.672 26.367 63.281 26.367c26.367 0 47.461-8.789 65.039-26.367s26.367-38.672 26.367-65.039zM842.469 418.117v-210.938h-660.938v91.406l151.172 149.414 73.828-75.586 240.82 240.82zM886.414 748.586h-748.828c-5.273 0-8.789-1.758-10.547-5.273-3.516-3.516-5.273-7.031-5.273-10.547v-569.531c0-3.516 1.758-7.031 5.273-10.547 1.758-3.516 5.273-5.273 10.547-5.273h748.828c5.273 0 8.789 1.758 10.547 5.273 3.516 3.516 5.273 7.031 5.273 10.547v569.531c0 3.516-1.758 7.031-5.273 10.547-1.758 3.516-5.273 5.273-10.547 5.273zM962 732.766v-569.531c0-21.094-7.031-38.672-22.852-52.734-14.063-15.82-31.641-22.852-52.734-22.852h-748.828c-21.094 0-38.672 7.031-52.734 22.852-15.82 14.063-22.852 31.641-22.852 52.734v569.531c0 21.094 7.031 38.672 22.852 52.734 14.063 15.82 31.641 22.852 52.734 22.852h748.828c21.094 0 38.672-7.031 52.734-22.852 15.82-14.063 22.852-31.641 22.852-52.734z" />
<glyph unicode="&#x70;" glyph-name="lock-open" horiz-adv-x="1044" d="M805.921 412.944c-10.185 3.925-35.708 12.802-36.074 13.097-29.889 7.465-89.61 24.137-89.61 24.137-54.486 11.722-110.388 17.662-166.132 17.667-54.142 0-108.438-5.627-161.538-16.693l-83.034 83.036c-64.786 64.784-64.786 170.192 0 234.978s170.195 64.788 234.982 0.003l86.341-86.338c29.095 7.053 61.625 21.392 82.33 44.399-1.663-0.173-3.92 0.338-4.829 1.243l-102.267 102.267c-98.737 98.73-259.387 98.73-358.121-0.003s-98.736-259.386 0-358.122l47.733-47.737c-12.989-4.348-23.679-8.159-33.473-11.937-12.14-4.681-21.298-18.133-21.298-31.296v-332.313c0-13.072 9.099-26.54 21.164-31.321 93.34-36.988 191.578-55.737 291.983-55.737s198.644 18.754 291.986 55.742c12.060 4.781 21.153 18.243 21.153 31.315v332.316c0.001 13.165-9.156 26.617-21.301 31.301zM548.564 222.035v-114.028c0-19.060-15.424-34.483-34.485-34.483s-34.483 15.424-34.483 34.483v114.028c-20.239 11.987-34.483 33.135-34.483 58.395 0 38.118 30.881 68.969 68.967 68.969s68.969-30.845 68.969-68.969c0-25.261-14.246-46.407-34.483-58.395z" />
<glyph unicode="&#x71;" glyph-name="uni71" d="M798 540c0-6-2-10-6-14l-266-266c-4-4-10-6-14-6s-10 2-14 6l-266 266c-4 4-6 8-6 14 0 4 2 8 6 12l30 30c2 2 8 4 12 4 6 0 10-2 14-4l224-226 224 226c4 2 8 4 14 4 4 0 10-2 12-4l30-30c4-4 6-8 6-12z" />
<glyph unicode="&#x72;" glyph-name="uni72" d="M732 174v36c0 6-2 10-6 14-4 2-8 4-12 4h-404c-4 0-8-2-12-4-4-4-6-8-6-14v-36c0-6 2-10 6-14 4-2 8-4 12-4h404c4 0 8 2 12 4 4 4 6 8 6 14zM732 320v36c0 6-2 10-6 14s-8 4-12 4h-404c-4 0-8 0-12-4s-6-8-6-14v-36c0-6 2-10 6-14 4-2 8-4 12-4h404c4 0 8 2 12 4 4 4 6 8 6 14zM878 522v-458c0-16-6-28-16-38-10-12-24-16-40-16h-620c-16 0-30 4-40 16-10 10-16 22-16 38v768c0 16 6 28 16 38 10 12 24 16 40 16h310v-310c0-16 6-28 16-38 10-12 24-16 38-16zM876 594h-290v292c30-6 56-18 74-38l178-178c20-20 32-44 38-76z" />
<glyph unicode="&#x73;" glyph-name="uni73" d="M888.875 192.875v376.875c0 15-5.625 26.25-15 37.5-9.375 9.375-22.5 15-35.625 15h-376.875c-15 0-28.125 3.75-37.5 15-9.375 9.375-15 22.5-15 35.625v33.75c0 15-5.625 28.125-15 37.5s-22.5 15-35.625 15h-172.5c-13.125 0-26.25-5.625-35.625-15s-15-22.5-15-37.5v-513.75c0-13.125 5.625-26.25 15-35.625 9.375-11.25 22.5-15 35.625-15h652.5c13.125 0 26.25 3.75 35.625 15 9.375 9.375 15 22.5 15 35.625zM958.25 569.75v-376.875c0-31.875-13.125-60-35.625-84.375-24.375-24.375-52.5-35.625-84.375-35.625h-652.5c-31.875 0-60 11.25-84.375 35.625-22.5 24.375-35.625 52.5-35.625 84.375v513.75c0 33.75 13.125 61.875 35.625 86.25 24.375 22.5 52.5 33.75 84.375 33.75h172.5c31.875 0 60-11.25 84.375-33.75 22.5-24.375 35.625-52.5 35.625-86.25v-16.875h360c31.875 0 60-11.25 84.375-35.625 22.5-22.5 35.625-50.625 35.625-84.375z" />
<glyph unicode="&#x74;" glyph-name="uni74" d="M888.875 534.25v-103.125c0-15-5.625-26.25-15-37.5-9.375-9.375-22.5-15-35.625-15h-223.125v-221.25c0-15-5.625-28.125-15-37.5s-22.5-15-37.5-15h-101.25c-15 0-28.125 5.625-37.5 15s-15 22.5-15 37.5v221.25h-223.125c-13.125 0-26.25 5.625-35.625 15-9.375 11.25-15 22.5-15 37.5v103.125c0 13.125 5.625 26.25 15 35.625s22.5 15 35.625 15h223.125v223.125c0 15 5.625 26.25 15 35.625 9.375 11.25 22.5 15 37.5 15h101.25c15 0 28.125-3.75 37.5-15 9.375-9.375 15-20.625 15-35.625v-223.125h223.125c13.125 0 26.25-5.625 35.625-15s15-22.5 15-35.625z" />
<glyph unicode="&#x75;" glyph-name="uni75" d="M330 704c0 20-8 38-22 52s-32 22-52 22c-20 0-38-8-52-22s-22-32-22-52c0-20 8-38 22-52s32-22 52-22c20 0 38 8 52 22s22 32 22 52zM938 374c0-20-6-36-20-50l-280-282c-16-14-34-20-52-20-22 0-38 6-52 20l-408 410c-16 14-28 32-38 58-10 24-14 46-14 66v238c0 20 6 36 20 52 16 14 32 20 52 20h238c20 0 42-4 66-14 26-10 44-22 60-38l408-408c14-14 20-32 20-52z" />
<glyph unicode="&#x76;" glyph-name="uni76" d="M942.664 389.633c0-8.789-5.273-19.336-14.063-31.641l-158.203-184.57c-12.305-15.82-31.641-29.883-56.25-40.43-24.609-12.305-45.703-17.578-66.797-17.578h-509.766c-10.547 0-21.094 1.758-28.125 7.031-8.789 3.516-14.063 10.547-14.063 19.336 0 10.547 5.273 21.094 15.82 31.641l156.445 184.57c14.063 17.578 33.398 29.883 56.25 42.188 24.609 10.547 47.461 15.82 68.555 15.82h509.766c10.547 0 19.336-1.758 28.125-5.273 8.789-5.273 12.305-12.305 12.305-21.094zM782.703 551.352v-75.586h-390.234c-29.883 0-59.766-7.031-93.164-22.852-31.641-14.063-58.008-33.398-77.344-54.492l-156.445-186.328-3.516-3.516c0 1.758 0 3.516 0 7.031 0 1.758 0 3.516 0 5.273v450c0 28.125 10.547 52.734 31.641 73.828 19.336 21.094 43.945 31.641 73.828 31.641h149.414c28.125 0 52.734-10.547 73.828-31.641s31.641-45.703 31.641-73.828v-14.063h254.883c28.125 0 52.734-10.547 73.828-31.641s31.641-45.703 31.641-73.828z" />
<glyph unicode="&#x77;" glyph-name="uni77" d="M658 448c0 40-14 74-42 104-30 28-64 42-104 42s-74-14-104-42c-28-30-42-64-42-104s14-74 42-104c30-28 64-42 104-42s74 14 104 42c28 30 42 64 42 104zM950 510v-126c0-6 0-10-4-14-2-4-6-6-12-8l-104-16c-8-20-16-38-24-52 14-18 34-44 62-78 4-4 6-10 6-14 0-6-2-10-6-14-10-14-28-34-56-62-28-26-46-40-54-40-4 0-10 2-14 6l-80 62c-16-10-34-16-52-22-6-52-12-88-16-106-2-12-10-16-20-16h-128c-4 0-10 0-14 4s-6 8-6 12l-16 106c-18 6-36 12-52 20l-80-60c-4-4-8-6-14-6s-10 2-14 6c-48 44-80 76-94 96-4 4-4 8-4 14 0 4 0 8 4 12 6 8 16 22 28 38 14 18 24 32 32 42-10 18-18 38-24 56l-104 16c-6 0-10 2-12 6-4 4-4 8-4 14v126c0 6 0 10 4 14 2 4 6 6 10 8l106 16c6 16 14 34 24 52-16 22-36 48-62 78-4 6-6 10-6 14s2 8 6 14c10 14 28 34 56 60 28 28 46 42 54 42 4 0 10-2 14-6l80-62c16 10 34 16 52 22 6 52 12 88 16 106 2 12 10 16 20 16h128c4 0 10 0 14-4s6-8 6-12l16-106c18-6 36-12 52-20l80 60c4 4 8 6 14 6s10-2 14-6c50-46 82-78 94-98 4-2 4-6 4-12 0-4 0-8-4-12-6-8-16-22-28-38-14-18-24-32-32-42 10-18 18-36 24-56l104-16c6 0 10-2 12-6 4-4 4-8 4-14z" />
<glyph unicode="&#x78;" glyph-name="uni78" d="M954 668c0-14-4-28-16-38l-490-492c-12-10-24-16-40-16-14 0-28 6-38 16l-284 284c-12 12-16 24-16 40 0 14 4 28 16 38l76 78c12 10 24 16 40 16 14 0 28-6 38-16l168-168 376 376c10 10 24 16 38 16 16 0 28-6 40-16l76-78c12-12 16-24 16-40z" />
<glyph unicode="&#x79;" glyph-name="user" horiz-adv-x="1029" d="M115.076 175.322q0 28.393 1.875 55.447t7.5 58.393 14.197 58.125 23.035 52.231 33.215 43.393 45.803 28.66 59.732 10.715q4.822 0 22.5-11.518t39.909-25.715 57.857-25.715 71.519-11.518 71.517 11.518 57.857 25.715 39.909 25.715 22.5 11.518q32.678 0 59.732-10.715t45.803-28.66 33.215-43.393 23.035-52.231 14.197-58.125 7.5-58.393 1.875-55.447q0-64.285-39.107-101.518t-103.929-37.232h-468.214q-64.822 0-103.929 37.232t-39.107 101.518zM286.506 653.715q0 85.178 60.268 145.447t145.447 60.268 145.447-60.268 60.268-145.447-60.268-145.447-145.447-60.268-145.447 60.268-60.268 145.447z" />
<glyph unicode="&#x7a;" glyph-name="uni7A" d="M688 682c0-6-2-10-6-14l-224-224 224-226c4-2 6-8 6-12 0-6-2-10-6-14l-28-28c-4-4-10-6-14-6s-10 2-14 6l-266 266c-4 4-6 8-6 14 0 4 2 8 6 12l266 266c4 4 10 6 14 6s10-2 14-6l28-28c4-4 6-8 6-12z" />
<glyph unicode="&#x7b;" glyph-name="marquee" d="M128 640v-128h-128v128h128zM0 832c0 70.656 57.344 128 128 128h64v-128c-35.392 0-64-28.608-64-64h-128v64zM320 832v128h128v-128h-128zM128 128c0-35.392 28.608-64 64-64v-128h-64c-70.656 0-128 57.344-128 128v64h128zM128 384v-128h-128v128h128zM320-64v128h128v-128h-128zM896 512v128h128v-128h-128zM576-64v128h128v-128h-128zM896 960c70.656 0 128-57.344 128-128v-64h-128c0 35.392-28.608 64-64 64v128h64zM896 256v128h128v-128h-128zM832 64c35.392 0 64 28.608 64 64h128v-64c0-70.656-57.344-128-128-128h-64v128zM576 832v128h128v-128h-128z" />
<glyph unicode="&#x201c;" glyph-name="quotes-left" d="M225 512c123.712 0 224-100.29 224-224 0-123.712-100.288-224-224-224s-224 100.288-224 224l-1 32c0 247.424 200.576 448 448 448v-128c-85.474 0-165.834-33.286-226.274-93.726-11.634-11.636-22.252-24.016-31.83-37.020 11.438 1.8 23.16 2.746 35.104 2.746zM801 512c123.71 0 224-100.29 224-224 0-123.712-100.29-224-224-224s-224 100.288-224 224l-1 32c0 247.424 200.576 448 448 448v-128c-85.474 0-165.834-33.286-226.274-93.726-11.636-11.636-22.254-24.016-31.832-37.020 11.44 1.8 23.16 2.746 35.106 2.746z" />
<glyph unicode="&#xe600;" glyph-name="pilcrow" d="M384 960h512v-128h-128v-896h-128v896h-128v-896h-128v512c-141.384 0-256 114.616-256 256s114.616 256 256 256z" />
<glyph unicode="&#xe601;" glyph-name="embed" horiz-adv-x="1280" d="M832 224l96-96 320 320-320 320-96-96 224-224zM448 672l-96 96-320-320 320-320 96 96-224 224zM701.298 809.481l69.468-18.944-191.987-704.026-69.468 18.944 191.987 704.026z" />
<glyph unicode="&#xe900;" glyph-name="chain-broken" horiz-adv-x="951" d="M250.857 224.571l-146.286-146.286q-5.714-5.143-13.143-5.143-6.857 0-13.143 5.143-5.143 5.714-5.143 13.143t5.143 13.143l146.286 146.286q5.714 5.143 13.143 5.143t13.143-5.143q5.143-5.714 5.143-13.143t-5.143-13.143zM347.429 201.143v-182.857q0-8-5.143-13.143t-13.143-5.143-13.143 5.143-5.143 13.143v182.857q0 8 5.143 13.143t13.143 5.143 13.143-5.143 5.143-13.143zM219.429 329.143q0-8-5.143-13.143t-13.143-5.143h-182.857q-8 0-13.143 5.143t-5.143 13.143 5.143 13.143 13.143 5.143h182.857q8 0 13.143-5.143t5.143-13.143zM941.714 256q0-68.571-48.571-116l-84-83.429q-47.429-47.429-116-47.429-69.143 0-116.571 48.571l-190.857 191.429q-12 12-24 32l136.571 10.286 156-156.571q15.429-15.429 38.857-15.714t38.857 15.143l84 83.429q16 16 16 38.286 0 22.857-16 38.857l-156.571 157.143 10.286 136.571q20-12 32-24l192-192q48-49.143 48-116.571zM589.143 669.714l-136.571-10.286-156 156.571q-16 16-38.857 16-22.286 0-38.857-15.429l-84-83.429q-16-16-16-38.286 0-22.857 16-38.857l156.571-156.571-10.286-137.143q-20 12-32 24l-192 192q-48 49.143-48 116.571 0 68.571 48.571 116l84 83.429q47.429 47.429 116 47.429 69.143 0 116.571-48.571l190.857-191.429q12-12 24-32zM950.857 621.714q0-8-5.143-13.143t-13.143-5.143h-182.857q-8 0-13.143 5.143t-5.143 13.143 5.143 13.143 13.143 5.143h182.857q8 0 13.143-5.143t5.143-13.143zM640 932.571v-182.857q0-8-5.143-13.143t-13.143-5.143-13.143 5.143-5.143 13.143v182.857q0 8 5.143 13.143t13.143 5.143 13.143-5.143 5.143-13.143zM872.571 846.286l-146.286-146.286q-6.286-5.143-13.143-5.143t-13.143 5.143q-5.143 5.714-5.143 13.143t5.143 13.143l146.286 146.286q5.714 5.143 13.143 5.143t13.143-5.143q5.143-5.714 5.143-13.143t-5.143-13.143z" />
<glyph unicode="&#xe901;" glyph-name="logout" d="M956.335 950.857h-602.22c-36.088 0-65.41-29.322-65.41-65.41s29.322-65.41 65.41-65.41h536.811v-757.85h-536.811c-36.088 0-65.41-29.322-65.41-65.41s29.322-65.41 65.41-65.41h602.22c36.088 0 65.41 29.322 65.41 65.41v888.67c2.256 36.088-29.322 65.41-65.41 65.41zM322.537 274.205l-99.242 99.242h471.401c36.088 0 65.41 29.322 65.41 65.41s-29.322 65.41-65.41 65.41h-473.656l99.242 99.242c24.811 24.811 24.811 65.41 0 92.476-11.278 11.278-29.322 18.044-45.11 18.044-18.044 0-33.833-6.767-45.11-18.044l-212.018-209.762c-6.767-9.022-13.533-18.044-15.789-31.577v-4.511c-2.256-2.256-2.256-6.767-2.256-11.278s0-9.022 0-11.278v-4.511c2.256-11.278 9.022-22.555 15.789-29.322l212.018-209.762c11.278-11.278 29.322-18.044 45.11-18.044 18.044 0 33.833 6.767 45.11 18.044 29.322 24.811 29.322 65.41 4.511 90.22z" />
<glyph unicode="&#xf034;" glyph-name="text-height" d="M0 657.714v218.857l46.286 0.571 30.857-15.429q6.857-2.857 120.571-2.857 25.143 0 75.429 1.143t75.429 1.143q20.571 0 61.429-0.286t61.429-0.286h167.429q3.429 0 12-0.286t11.714 0 9.143 1.714 10 5.143 8.571 10l24 0.571q2.286 0 8-0.286t8-0.286q1.143-64 1.143-192 0-45.714-2.857-62.286-22.286-8-38.857-10.286-14.286 25.143-30.857 73.143-1.714 5.143-6.286 27.429t-8.286 42-4.286 20.286q-3.429 4.571-6.857 7.143t-8.857 3.429-7.429 1.429-10.286 0.286-9.429-0.286q-9.714 0-38 0.286t-42.571 0.286-36.571-1.143-40.571-3.429q-5.143-46.286-4.571-77.714 0-53.714 1.143-221.714t1.143-260q0-9.143-1.429-40.857t0-52.286 7.143-39.429q22.857-12 70.857-24.286t68.571-21.429q2.857-22.857 2.857-28.571 0-8-1.714-16.571l-19.429-0.571q-43.429-1.143-124.571 4.571t-118.286 5.714q-28.571 0-86.286-5.143t-86.857-5.143q-1.714 29.143-1.714 29.714v5.143q9.714 15.429 35.143 24.571t56.286 16.571 44.571 15.429q10.857 24 10.857 218.857 0 57.714-1.714 173.143t-1.714 173.143v66.857q0 1.143 0.286 8.857t0.286 14.286-0.571 14.571-1.714 13.714-2.857 8q-6.286 6.857-92.571 6.857-18.857 0-53.143-6.857t-45.714-14.857q-10.857-7.429-19.429-41.429t-18-63.429-24.286-30.571q-24 14.857-32 25.143zM808 135.714q5.143 10.571 24 10.571h45.714v585.143h-45.714q-18.857 0-24 10.571t6.286 25.429l72 92.571q11.429 14.857 28 14.857t28-14.857l72-92.571q11.429-14.857 6.286-25.429t-24-10.571h-45.714v-585.143h45.714q18.857 0 24-10.571t-6.286-25.429l-72-92.571q-11.429-14.857-28-14.857t-28 14.857l-72 92.571q-11.429 14.857-6.286 25.429z" />
<glyph unicode="&#xf0ce;" glyph-name="table" horiz-adv-x="951" d="M292.571 164.571v109.714q0 8-5.143 13.143t-13.143 5.143h-182.857q-8 0-13.143-5.143t-5.143-13.143v-109.714q0-8 5.143-13.143t13.143-5.143h182.857q8 0 13.143 5.143t5.143 13.143zM292.571 384v109.714q0 8-5.143 13.143t-13.143 5.143h-182.857q-8 0-13.143-5.143t-5.143-13.143v-109.714q0-8 5.143-13.143t13.143-5.143h182.857q8 0 13.143 5.143t5.143 13.143zM585.143 164.571v109.714q0 8-5.143 13.143t-13.143 5.143h-182.857q-8 0-13.143-5.143t-5.143-13.143v-109.714q0-8 5.143-13.143t13.143-5.143h182.857q8 0 13.143 5.143t5.143 13.143zM292.571 603.428v109.714q0 8-5.143 13.143t-13.143 5.143h-182.857q-8 0-13.143-5.143t-5.143-13.143v-109.714q0-8 5.143-13.143t13.143-5.143h182.857q8 0 13.143 5.143t5.143 13.143zM585.143 384v109.714q0 8-5.143 13.143t-13.143 5.143h-182.857q-8 0-13.143-5.143t-5.143-13.143v-109.714q0-8 5.143-13.143t13.143-5.143h182.857q8 0 13.143 5.143t5.143 13.143zM877.714 164.571v109.714q0 8-5.143 13.143t-13.143 5.143h-182.857q-8 0-13.143-5.143t-5.143-13.143v-109.714q0-8 5.143-13.143t13.143-5.143h182.857q8 0 13.143 5.143t5.143 13.143zM585.143 603.428v109.714q0 8-5.143 13.143t-13.143 5.143h-182.857q-8 0-13.143-5.143t-5.143-13.143v-109.714q0-8 5.143-13.143t13.143-5.143h182.857q8 0 13.143 5.143t5.143 13.143zM877.714 384v109.714q0 8-5.143 13.143t-13.143 5.143h-182.857q-8 0-13.143-5.143t-5.143-13.143v-109.714q0-8 5.143-13.143t13.143-5.143h182.857q8 0 13.143 5.143t5.143 13.143zM877.714 603.428v109.714q0 8-5.143 13.143t-13.143 5.143h-182.857q-8 0-13.143-5.143t-5.143-13.143v-109.714q0-8 5.143-13.143t13.143-5.143h182.857q8 0 13.143 5.143t5.143 13.143zM950.857 786.286v-621.714q0-37.714-26.857-64.571t-64.571-26.857h-768q-37.714 0-64.571 26.857t-26.857 64.571v621.714q0 37.714 26.857 64.571t64.571 26.857h768q37.714 0 64.571-26.857t26.857-64.571z" />
</font>
</defs>
</svg>
